  0
SECTION
  2
HEADER
  9
$ACADVER
  1
AC1024
  9
$ACADMAINTVER
 70
   226
  9
$DWGCODEPAGE
  3
ANSI_936
  9
$LASTSAVEDBY
  1
Austin.wang
  9
$INSBASE
 10
0.0
 20
0.0
 30
0.0
  9
$EXTMIN
 10
326.398792156937
 20
-238.3015748092609
 30
0.0
  9
$EXTMAX
 10
811.1769103601186
 20
366.5334604207084
 30
0.0
  9
$LIMMIN
 10
0.0
 20
0.0
  9
$LIMMAX
 10
420.0
 20
297.0
  9
$ORTHOMODE
 70
     1
  9
$REGENMODE
 70
     1
  9
$FILLMODE
 70
     1
  9
$QTEXTMODE
 70
     0
  9
$MIRRTEXT
 70
     1
  9
$LTSCALE
 40
15.0
  9
$ATTMODE
 70
     1
  9
$TEXTSIZE
 40
2.5
  9
$TRACEWID
 40
1.0
  9
$TEXTSTYLE
  7
Standard
  9
$CLAYER
  8
0
  9
$CELTYPE
  6
ByLayer
  9
$CECOLOR
 62
   256
  9
$CELTSCALE
 40
1.0
  9
$DISPSILH
 70
     0
  9
$DIMSCALE
 40
1.0
  9
$DIMASZ
 40
2.5
  9
$DIMEXO
 40
3.0
  9
$DIMDLI
 40
3.75
  9
$DIMRND
 40
0.0
  9
$DIMDLE
 40
0.0
  9
$DIMEXE
 40
1.25
  9
$DIMTP
 40
0.0
  9
$DIMTM
 40
0.0
  9
$DIMTXT
 40
1.0
  9
$DIMCEN
 40
2.5
  9
$DIMTSZ
 40
0.0
  9
$DIMTOL
 70
     0
  9
$DIMLIM
 70
     0
  9
$DIMTIH
 70
     0
  9
$DIMTOH
 70
     0
  9
$DIMSE1
 70
     0
  9
$DIMSE2
 70
     0
  9
$DIMTAD
 70
     1
  9
$DIMZIN
 70
     8
  9
$DIMBLK
  1

  9
$DIMASO
 70
     1
  9
$DIMSHO
 70
     1
  9
$DIMPOST
  1

  9
$DIMAPOST
  1

  9
$DIMALT
 70
     0
  9
$DIMALTD
 70
     3
  9
$DIMALTF
 40
0.03937007874016
  9
$DIMLFAC
 40
1.0
  9
$DIMTOFL
 70
     1
  9
$DIMTVP
 40
0.0
  9
$DIMTIX
 70
     0
  9
$DIMSOXD
 70
     0
  9
$DIMSAH
 70
     0
  9
$DIMBLK1
  1

  9
$DIMBLK2
  1

  9
$DIMSTYLE
  2
ISO-25
  9
$DIMCLRD
 70
     0
  9
$DIMCLRE
 70
     0
  9
$DIMCLRT
 70
     0
  9
$DIMTFAC
 40
1.0
  9
$DIMGAP
 40
0.625
  9
$DIMJUST
 70
     0
  9
$DIMSD1
 70
     0
  9
$DIMSD2
 70
     0
  9
$DIMTOLJ
 70
     0
  9
$DIMTZIN
 70
     8
  9
$DIMALTZ
 70
     0
  9
$DIMALTTZ
 70
     0
  9
$DIMUPT
 70
     0
  9
$DIMDEC
 70
     2
  9
$DIMTDEC
 70
     2
  9
$DIMALTU
 70
     2
  9
$DIMALTTD
 70
     3
  9
$DIMTXSTY
  7
Standard
  9
$DIMAUNIT
 70
     0
  9
$DIMADEC
 70
     0
  9
$DIMALTRND
 40
0.0
  9
$DIMAZIN
 70
     0
  9
$DIMDSEP
 70
    44
  9
$DIMATFIT
 70
     3
  9
$DIMFRAC
 70
     0
  9
$DIMLDRBLK
  1

  9
$DIMLUNIT
 70
     2
  9
$DIMLWD
 70
    -2
  9
$DIMLWE
 70
    -2
  9
$DIMTMOVE
 70
     0
  9
$DIMFXL
 40
1.0
  9
$DIMFXLON
 70
     0
  9
$DIMJOGANG
 40
0.7853981633974483
  9
$DIMTFILL
 70
     0
  9
$DIMTFILLCLR
 70
     0
  9
$DIMARCSYM
 70
     0
  9
$DIMLTYPE
  6

  9
$DIMLTEX1
  6

  9
$DIMLTEX2
  6

  9
$DIMTXTDIRECTION
 70
     0
  9
$LUNITS
 70
     2
  9
$LUPREC
 70
     4
  9
$SKETCHINC
 40
1.0
  9
$FILLETRAD
 40
10.0
  9
$AUNITS
 70
     0
  9
$AUPREC
 70
     0
  9
$MENU
  1
.
  9
$ELEVATION
 40
0.0
  9
$PELEVATION
 40
0.0
  9
$THICKNESS
 40
0.0
  9
$LIMCHECK
 70
     0
  9
$CHAMFERA
 40
10.0
  9
$CHAMFERB
 40
10.0
  9
$CHAMFERC
 40
20.0
  9
$CHAMFERD
 40
0.0
  9
$SKPOLY
 70
     0
  9
$TDCREATE
 40
2453354.050459155
  9
$TDUCREATE
 40
2453353.717125822
  9
$TDUPDATE
 40
2459901.634290915
  9
$TDUUPDATE
 40
2459901.300957581
  9
$TDINDWG
 40
66.746922998
  9
$TDUSRTIMER
 40
66.746896933
  9
$USRTIMER
 70
     1
  9
$ANGBASE
 50
0.0
  9
$ANGDIR
 70
     0
  9
$PDMODE
 70
     0
  9
$PDSIZE
 40
0.0
  9
$PLINEWID
 40
0.0
  9
$SPLFRAME
 70
     0
  9
$SPLINETYPE
 70
     6
  9
$SPLINESEGS
 70
     8
  9
$HANDSEED
  5
285A
  9
$SURFTAB1
 70
     6
  9
$SURFTAB2
 70
     6
  9
$SURFTYPE
 70
     6
  9
$SURFU
 70
     6
  9
$SURFV
 70
     6
  9
$UCSBASE
  2

  9
$UCSNAME
  2

  9
$UCSORG
 10
0.0
 20
0.0
 30
0.0
  9
$UCSXDIR
 10
1.0
 20
0.0
 30
0.0
  9
$UCSYDIR
 10
0.0
 20
1.0
 30
0.0
  9
$UCSORTHOREF
  2

  9
$UCSORTHOVIEW
 70
     0
  9
$UCSORGTOP
 10
0.0
 20
0.0
 30
0.0
  9
$UCSORGBOTTOM
 10
0.0
 20
0.0
 30
0.0
  9
$UCSORGLEFT
 10
0.0
 20
0.0
 30
0.0
  9
$UCSORGRIGHT
 10
0.0
 20
0.0
 30
0.0
  9
$UCSORGFRONT
 10
0.0
 20
0.0
 30
0.0
  9
$UCSORGBACK
 10
0.0
 20
0.0
 30
0.0
  9
$PUCSBASE
  2

  9
$PUCSNAME
  2

  9
$PUCSORG
 10
0.0
 20
0.0
 30
0.0
  9
$PUCSXDIR
 10
1.0
 20
0.0
 30
0.0
  9
$PUCSYDIR
 10
0.0
 20
1.0
 30
0.0
  9
$PUCSORTHOREF
  2

  9
$PUCSORTHOVIEW
 70
     0
  9
$PUCSORGTOP
 10
0.0
 20
0.0
 30
0.0
  9
$PUCSORGBOTTOM
 10
0.0
 20
0.0
 30
0.0
  9
$PUCSORGLEFT
 10
0.0
 20
0.0
 30
0.0
  9
$PUCSORGRIGHT
 10
0.0
 20
0.0
 30
0.0
  9
$PUCSORGFRONT
 10
0.0
 20
0.0
 30
0.0
  9
$PUCSORGBACK
 10
0.0
 20
0.0
 30
0.0
  9
$USERI1
 70
     0
  9
$USERI2
 70
     0
  9
$USERI3
 70
     0
  9
$USERI4
 70
     0
  9
$USERI5
 70
     2
  9
$USERR1
 40
0.0
  9
$USERR2
 40
0.0
  9
$USERR3
 40
0.0
  9
$USERR4
 40
0.0
  9
$USERR5
 40
0.0
  9
$WORLDVIEW
 70
     1
  9
$SHADEDGE
 70
     3
  9
$SHADEDIF
 70
    70
  9
$TILEMODE
 70
     1
  9
$MAXACTVP
 70
    16
  9
$PINSBASE
 10
0.0
 20
0.0
 30
0.0
  9
$PLIMCHECK
 70
     0
  9
$PEXTMIN
 10
0.0
 20
0.0
 30
0.0
  9
$PEXTMAX
 10
0.0
 20
0.0
 30
0.0
  9
$PLIMMIN
 10
0.0
 20
0.0
  9
$PLIMMAX
 10
12.0
 20
9.0
  9
$UNITMODE
 70
     0
  9
$VISRETAIN
 70
     1
  9
$PLINEGEN
 70
     0
  9
$PSLTSCALE
 70
     1
  9
$TREEDEPTH
 70
  3020
  9
$CMLSTYLE
  2
Standard
  9
$CMLJUST
 70
     0
  9
$CMLSCALE
 40
20.0
  9
$PROXYGRAPHICS
 70
     1
  9
$MEASUREMENT
 70
     1
  9
$CELWEIGHT
370
    -1
  9
$ENDCAPS
280
     0
  9
$JOINSTYLE
280
     0
  9
$LWDISPLAY
290
     1
  9
$INSUNITS
 70
     4
  9
$HYPERLINKBASE
  1

  9
$STYLESHEET
  1

  9
$XEDIT
290
     1
  9
$CEPSNTYPE
380
     0
  9
$PSTYLEMODE
290
     1
  9
$FINGERPRINTGUID
  2
{707AFEF9-EF83-425C-B180-281970873DC9}
  9
$VERSIONGUID
  2
{C3566288-392E-4DE9-A545-498C63227FA5}
  9
$EXTNAMES
290
     1
  9
$PSVPSCALE
 40
0.0
  9
$OLESTARTUP
290
     0
  9
$SORTENTS
280
   127
  9
$INDEXCTL
280
     0
  9
$HIDETEXT
280
     1
  9
$XCLIPFRAME
280
     0
  9
$HALOGAP
280
     0
  9
$OBSCOLOR
 70
   257
  9
$OBSLTYPE
280
     0
  9
$INTERSECTIONDISPLAY
280
     0
  9
$INTERSECTIONCOLOR
 70
   257
  9
$DIMASSOC
280
     2
  9
$PROJECTNAME
  1

  9
$CAMERADISPLAY
290
     0
  9
$LENSLENGTH
 40
50.0
  9
$CAMERAHEIGHT
 40
0.0
  9
$STEPSPERSEC
 40
2.0
  9
$STEPSIZE
 40
6.0
  9
$3DDWFPREC
 40
2.0
  9
$PSOLWIDTH
 40
0.25
  9
$PSOLHEIGHT
 40
4.0
  9
$LOFTANG1
 40
1.570796326794896
  9
$LOFTANG2
 40
1.570796326794896
  9
$LOFTMAG1
 40
0.0
  9
$LOFTMAG2
 40
0.0
  9
$LOFTPARAM
 70
     7
  9
$LOFTNORMALS
280
     1
  9
$LATITUDE
 40
37.795
  9
$LONGITUDE
 40
-122.394
  9
$NORTHDIRECTION
 40
0.0
  9
$TIMEZONE
 70
 -8000
  9
$LIGHTGLYPHDISPLAY
280
     1
  9
$TILEMODELIGHTSYNCH
280
     1
  9
$SOLIDHIST
280
     1
  9
$SHOWHIST
280
     1
  9
$DWFFRAME
280
     2
  9
$DGNFRAME
280
     2
  9
$REALWORLDSCALE
290
     1
  9
$INTERFERECOLOR
 62
   256
  9
$CSHADOW
280
     0
  9
$SHADOWPLANELOCATION
 40
0.0
  0
ENDSEC
  0
SECTION
  2
CLASSES
  0
CLASS
  1
ACDBDICTIONARYWDFLT
  2
AcDbDictionaryWithDefault
  3
ObjectDBX Classes
 90
        0
 91
        1
280
     0
281
     0
  0
CLASS
  1
ACDBPLACEHOLDER
  2
AcDbPlaceHolder
  3
ObjectDBX Classes
 90
        0
 91
        0
280
     0
281
     0
  0
CLASS
  1
LAYOUT
  2
AcDbLayout
  3
ObjectDBX Classes
 90
        0
 91
        0
280
     0
281
     0
  0
CLASS
  1
DICTIONARYVAR
  2
AcDbDictionaryVar
  3
ObjectDBX Classes
 90
        0
 91
        7
280
     0
281
     0
  0
CLASS
  1
TABLESTYLE
  2
AcDbTableStyle
  3
ObjectDBX Classes
 90
     4095
 91
        6
280
     0
281
     0
  0
CLASS
  1
WIPEOUTVARIABLES
  2
AcDbWipeoutVariables
  3
WipeOut|AutoCAD Express Tool|expresstools@autodesk.com
 90
        0
 91
        1
280
     0
281
     0
  0
CLASS
  1
MATERIAL
  2
AcDbMaterial
  3
ObjectDBX Classes
 90
        0
 91
       18
280
     0
281
     0
  0
CLASS
  1
VISUALSTYLE
  2
AcDbVisualStyle
  3
ObjectDBX Classes
 90
     4095
 91
      144
280
     0
281
     0
  0
CLASS
  1
MLEADERSTYLE
  2
AcDbMLeaderStyle
  3
ACDB_MLEADERSTYLE_CLASS
 90
     4095
 91
        6
280
     0
281
     0
  0
CLASS
  1
SCALE
  2
AcDbScale
  3
ObjectDBX Classes
 90
     1153
 91
       17
280
     0
281
     0
  0
CLASS
  1
SWR_DBCONFIG
  2
TDbConfig
  3
"SWR_ARCHCORE"
 90
        1
 91
        1
280
     0
281
     0
  0
CLASS
  1
RASTERVARIABLES
  2
AcDbRasterVariables
  3
ISM
 90
        0
 91
        1
280
     0
281
     0
  0
CLASS
  1
DIMASSOC
  2
AcDbDimAssoc
  3
ZcDbDimAssoc ObjectDBX Classes
 90
        0
 91
       12
280
     0
281
     0
  0
ENDSEC
  0
SECTION
  2
TABLES
  0
TABLE
  2
VPORT
  5
8
330
0
100
AcDbSymbolTable
 70
     1
  0
VPORT
  5
97
330
8
100
AcDbSymbolTableRecord
100
AcDbViewportTableRecord
  2
*Active
 70
     0
 10
0.0
 20
0.0
 11
1.0
 21
1.0
 12
484.1470998076482
 22
324.1766731104838
 13
0.0
 23
0.0
 14
10.0
 24
10.0
 15
10.0
 25
10.0
 16
0.0
 26
0.0
 36
1.0
 17
0.0
 27
0.0
 37
0.0
 40
231.5048412215266
 41
2.383206106870229
 42
50.0
 43
0.0
 44
0.0
 50
0.0
 51
0.0
 71
    16
 72
   100
 73
     1
 74
     1
 75
     0
 76
     0
 77
     0
 78
     0
281
     0
 65
     1
110
0.0
120
0.0
130
0.0
111
1.0
121
0.0
131
0.0
112
0.0
122
1.0
132
0.0
 79
     0
146
0.0
348
2383
 60
     3
 61
     5
292
     1
282
     1
141
0.0
142
0.0
 63
   256
  0
ENDTAB
  0
TABLE
  2
LTYPE
  5
5
330
0
100
AcDbSymbolTable
 70
     2
  0
LTYPE
  5
14
330
5
100
AcDbSymbolTableRecord
100
AcDbLinetypeTableRecord
  2
ByBlock
 70
     0
  3

 72
    65
 73
     0
 40
0.0
  0
LTYPE
  5
15
330
5
100
AcDbSymbolTableRecord
100
AcDbLinetypeTableRecord
  2
ByLayer
 70
     0
  3

 72
    65
 73
     0
 40
0.0
  0
LTYPE
  5
16
330
5
100
AcDbSymbolTableRecord
100
AcDbLinetypeTableRecord
  2
Continuous
 70
     0
  3
Solid line
 72
    65
 73
     0
 40
0.0
  0
LTYPE
  5
22D9
330
5
100
AcDbSymbolTableRecord
100
AcDbLinetypeTableRecord
  2
CENTER2
 70
     0
  3
___ _ ___ _ ___ _ ___ _ ___ _ ___ _ ___ _ ___ _ ___ _ ___ _ _
 72
    65
 73
     4
 40
1.125
 49
0.75
 74
     4
 75
     0
340
0
 46
1.0
 50
0.0
 44
0.0
 45
0.0
 49
-0.125
 74
     4
 75
     0
340
0
 46
1.0
 50
0.0
 44
0.0
 45
0.0
 49
0.125
 74
     4
 75
     0
340
0
 46
1.0
 50
0.0
 44
0.0
 45
0.0
 49
-0.125
 74
     4
 75
     0
340
0
 46
1.0
 50
0.0
 44
0.0
 45
0.0
  0
ENDTAB
  0
TABLE
  2
LAYER
  5
2
330
0
100
AcDbSymbolTable
 70
     4
  0
LAYER
  5
10
330
2
100
AcDbSymbolTableRecord
100
AcDbLayerTableRecord
  2
0
 70
     0
 62
     7
  6
Continuous
370
    -3
390
F
347
237D
1071
 33554687
  0
LAYER
  5
B7
330
2
100
AcDbSymbolTableRecord
100
AcDbLayerTableRecord
  2
Defpoints
 70
     0
 62
     7
  6
Continuous
290
     0
370
    -3
390
F
347
237D
1071
 33554687
  0
LAYER
  5
12EB
330
2
100
AcDbSymbolTableRecord
100
AcDbLayerTableRecord
  2
SIZE
 70
     0
 62
    60
  6
Continuous
370
    -3
390
F
347
237D
1071
 33554687
  0
LAYER
  5
23C0
330
2
100
AcDbSymbolTableRecord
100
AcDbLayerTableRecord
  2
系统-临时-屏蔽
 70
     0
 62
     7
  6
Continuous
370
    -3
390
F
347
237D
1071
 33554687
  0
ENDTAB
  0
TABLE
  2
STYLE
  5
3
330
0
100
AcDbSymbolTable
 70
     2
  0
STYLE
  5
11
330
3
100
AcDbSymbolTableRecord
100
AcDbTextStyleTableRecord
  2
Standard
 70
     0
 40
0.0
 41
1.0
 50
0.0
 71
     0
 42
2.5
  3
monotxt.shx
  4

  0
STYLE
  5
1019
330
3
100
AcDbSymbolTableRecord
100
AcDbTextStyleTableRecord
  2
T1
 70
     0
 40
0.0
 41
1.0
 50
0.0
 71
     0
 42
0.2
  3
SimSun.ttf
  4

1001
ACAD
1000
SimSun
1071
    34306
  0
ENDTAB
  0
TABLE
  2
VIEW
  5
6
330
0
100
AcDbSymbolTable
 70
     0
  0
ENDTAB
  0
TABLE
  2
UCS
  5
7
330
0
100
AcDbSymbolTable
 70
     0
  0
ENDTAB
  0
TABLE
  2
APPID
  5
9
330
0
100
AcDbSymbolTable
 70
     3
  0
APPID
  5
12
330
9
100
AcDbSymbolTableRecord
100
AcDbRegAppTableRecord
  2
ACAD
 70
     0
  0
APPID
  5
22D7
330
9
100
AcDbSymbolTableRecord
100
AcDbRegAppTableRecord
  2
ACADANNOTATIVE
 70
     0
  0
APPID
  5
22D8
330
9
100
AcDbSymbolTableRecord
100
AcDbRegAppTableRecord
  2
HATCHBACKGROUNDCOLOR
 70
     0
  0
ENDTAB
  0
TABLE
  2
DIMSTYLE
  5
A
330
0
100
AcDbSymbolTable
 70
     4
100
AcDbDimStyleTable
 71
     0
  0
DIMSTYLE
105
27
330
A
100
AcDbSymbolTableRecord
100
AcDbDimStyleTableRecord
  2
Standard
 70
     0
340
11
  0
DIMSTYLE
105
9C
102
{ACAD_REACTORS
330
243E
330
244A
330
2480
330
2481
330
26C4
330
26E5
330
2718
330
275D
102
}
330
A
100
AcDbSymbolTableRecord
100
AcDbDimStyleTableRecord
  2
ISO-25
 70
     0
 41
2.5
 42
3.0
 43
3.75
 44
1.25
 73
     0
 74
     0
 77
     1
 78
     8
140
1.0
141
2.5
143
0.03937007874016
147
0.625
171
     3
172
     1
271
     2
272
     2
274
     3
278
    44
283
     0
284
     8
340
11
  0
DIMSTYLE
105
B8
102
{ACAD_REACTORS
330
256
330
267
330
278
330
288
330
294
330
2A2
102
}
330
A
100
AcDbSymbolTableRecord
100
AcDbDimStyleTableRecord
  2
Annotative
 70
     0
 40
0.0
 41
3.0
 42
1.0
 43
2.0
 44
1.5
 73
     0
 74
     0
 77
     1
 78
     8
140
3.0
141
3.0
143
0.03937007874016
144
0.25
147
1.0
171
     3
172
     1
176
     3
177
     3
271
     1
178
     7
271
     1
272
     2
274
     3
283
     0
284
     8
340
11
  0
DIMSTYLE
105
24DE
102
{ACAD_REACTORS
330
2566
330
2574
330
25B5
330
25C3
102
}
330
A
100
AcDbSymbolTableRecord
100
AcDbDimStyleTableRecord
  2
SCALE 7
 70
     0
 41
9.8
 42
0.0
 43
0.3800000000000001
 44
5.0
 78
     8
140
10.0
141
0.09
147
2.5
271
     1
340
11
1001
ACADANNOTATIVE
1000
AnnotativeData
1002
{
1070
     1
1070
     0
1002
}
  0
ENDTAB
  0
TABLE
  2
BLOCK_RECORD
  5
1
330
0
100
AcDbSymbolTable
 70
   101
  0
BLOCK_RECORD
  5
1F
330
1
100
AcDbSymbolTableRecord
100
AcDbBlockTableRecord
  2
*Model_Space
340
22
 70
     0
280
     1
281
     0
  0
BLOCK_RECORD
  5
73
330
1
100
AcDbSymbolTableRecord
100
AcDbBlockTableRecord
  2
*Paper_Space
340
1E
 70
     0
280
     1
281
     0
  0
BLOCK_RECORD
  5
23
330
1
100
AcDbSymbolTableRecord
100
AcDbBlockTableRecord
  2
*Paper_Space0
340
26
 70
     0
280
     1
281
     0
  0
BLOCK_RECORD
  5
1D8
330
1
100
AcDbSymbolTableRecord
100
AcDbBlockTableRecord
  2
_FILLED
340
0
 70
     0
280
     1
281
     0
  0
BLOCK_RECORD
  5
20CD
330
1
100
AcDbSymbolTableRecord
100
AcDbBlockTableRecord
  2
*D43
340
0
 70
     0
280
     1
281
     0
  0
BLOCK_RECORD
  5
2101
330
1
100
AcDbSymbolTableRecord
100
AcDbBlockTableRecord
  2
*D47
340
0
 70
     0
280
     1
281
     0
  0
BLOCK_RECORD
  5
211B
330
1
100
AcDbSymbolTableRecord
100
AcDbBlockTableRecord
  2
*D49
340
0
 70
     0
280
     1
281
     0
  0
BLOCK_RECORD
  5
2135
330
1
100
AcDbSymbolTableRecord
100
AcDbBlockTableRecord
  2
*D51
340
0
 70
     0
280
     1
281
     0
  0
BLOCK_RECORD
  5
214F
330
1
100
AcDbSymbolTableRecord
100
AcDbBlockTableRecord
  2
*D53
340
0
 70
     0
280
     1
281
     0
  0
BLOCK_RECORD
  5
2169
330
1
100
AcDbSymbolTableRecord
100
AcDbBlockTableRecord
  2
*D55
340
0
 70
     0
280
     1
281
     0
  0
BLOCK_RECORD
  5
2244
330
1
100
AcDbSymbolTableRecord
100
AcDbBlockTableRecord
  2
*D68
340
0
 70
     0
280
     1
281
     0
  0
BLOCK_RECORD
  5
2251
330
1
100
AcDbSymbolTableRecord
100
AcDbBlockTableRecord
  2
*D69
340
0
 70
     0
280
     1
281
     0
  0
BLOCK_RECORD
  5
225E
330
1
100
AcDbSymbolTableRecord
100
AcDbBlockTableRecord
  2
*D70
340
0
 70
     0
280
     1
281
     0
  0
BLOCK_RECORD
  5
226B
330
1
100
AcDbSymbolTableRecord
100
AcDbBlockTableRecord
  2
*D71
340
0
 70
     0
280
     1
281
     0
  0
BLOCK_RECORD
  5
2278
330
1
100
AcDbSymbolTableRecord
100
AcDbBlockTableRecord
  2
*D72
340
0
 70
     0
280
     1
281
     0
  0
BLOCK_RECORD
  5
2285
330
1
100
AcDbSymbolTableRecord
100
AcDbBlockTableRecord
  2
*D73
340
0
 70
     0
280
     1
281
     0
  0
BLOCK_RECORD
  5
2292
330
1
100
AcDbSymbolTableRecord
100
AcDbBlockTableRecord
  2
*D74
340
0
 70
     0
280
     1
281
     0
  0
BLOCK_RECORD
  5
229F
330
1
100
AcDbSymbolTableRecord
100
AcDbBlockTableRecord
  2
*D75
340
0
 70
     0
280
     1
281
     0
  0
BLOCK_RECORD
  5
22AC
330
1
100
AcDbSymbolTableRecord
100
AcDbBlockTableRecord
  2
*D76
340
0
 70
     0
280
     1
281
     0
  0
BLOCK_RECORD
  5
22B9
330
1
100
AcDbSymbolTableRecord
100
AcDbBlockTableRecord
  2
*D77
340
0
 70
     0
280
     1
281
     0
  0
BLOCK_RECORD
  5
22C6
330
1
100
AcDbSymbolTableRecord
100
AcDbBlockTableRecord
  2
*D78
340
0
 70
     0
280
     1
281
     0
  0
BLOCK_RECORD
  5
22D3
330
1
100
AcDbSymbolTableRecord
100
AcDbBlockTableRecord
  2
*D79
340
0
 70
     0
280
     1
281
     0
  0
BLOCK_RECORD
  5
243F
330
1
100
AcDbSymbolTableRecord
100
AcDbBlockTableRecord
  2
*D81
340
0
 70
     0
280
     1
281
     0
  0
BLOCK_RECORD
  5
244B
330
1
100
AcDbSymbolTableRecord
100
AcDbBlockTableRecord
  2
*D82
340
0
 70
     0
280
     1
281
     0
  0
BLOCK_RECORD
  5
248A
330
1
100
AcDbSymbolTableRecord
100
AcDbBlockTableRecord
  2
*D83
340
0
 70
     0
280
     1
281
     0
  0
BLOCK_RECORD
  5
2496
330
1
100
AcDbSymbolTableRecord
100
AcDbBlockTableRecord
  2
*D84
340
0
 70
     0
280
     1
281
     0
  0
BLOCK_RECORD
  5
2569
330
1
100
AcDbSymbolTableRecord
100
AcDbBlockTableRecord
  2
*D87
340
0
 70
     0
280
     1
281
     0
  0
BLOCK_RECORD
  5
2577
330
1
100
AcDbSymbolTableRecord
100
AcDbBlockTableRecord
  2
*D88
340
0
 70
     0
280
     1
281
     0
  0
BLOCK_RECORD
  5
25B8
330
1
100
AcDbSymbolTableRecord
100
AcDbBlockTableRecord
  2
*D89
340
0
 70
     0
280
     1
281
     0
  0
BLOCK_RECORD
  5
25C6
330
1
100
AcDbSymbolTableRecord
100
AcDbBlockTableRecord
  2
*D90
340
0
 70
     0
280
     1
281
     0
  0
BLOCK_RECORD
  5
2678
330
1
100
AcDbSymbolTableRecord
100
AcDbBlockTableRecord
  2
*D91
340
0
 70
     0
280
     1
281
     0
  0
BLOCK_RECORD
  5
2683
330
1
100
AcDbSymbolTableRecord
100
AcDbBlockTableRecord
  2
*D92
340
0
 70
     0
280
     1
281
     0
  0
BLOCK_RECORD
  5
268E
330
1
100
AcDbSymbolTableRecord
100
AcDbBlockTableRecord
  2
*D93
340
0
 70
     0
280
     1
281
     0
  0
BLOCK_RECORD
  5
2699
330
1
100
AcDbSymbolTableRecord
100
AcDbBlockTableRecord
  2
*D94
340
0
 70
     0
280
     1
281
     0
  0
BLOCK_RECORD
  5
26C7
330
1
100
AcDbSymbolTableRecord
100
AcDbBlockTableRecord
  2
*D95
340
0
 70
     0
280
     1
281
     0
  0
BLOCK_RECORD
  5
26E8
330
1
100
AcDbSymbolTableRecord
100
AcDbBlockTableRecord
  2
*D96
340
0
 70
     0
280
     1
281
     0
  0
BLOCK_RECORD
  5
271B
330
1
100
AcDbSymbolTableRecord
100
AcDbBlockTableRecord
  2
*D97
340
0
 70
     0
280
     1
281
     0
  0
BLOCK_RECORD
  5
2760
330
1
100
AcDbSymbolTableRecord
100
AcDbBlockTableRecord
  2
*D98
340
0
 70
     0
280
     1
281
     0
  0
ENDTAB
  0
ENDSEC
  0
SECTION
  2
BLOCKS
  0
BLOCK
  5
20
330
1F
100
AcDbEntity
  8
0
100
AcDbBlockBegin
  2
*Model_Space
 70
     0
 10
0.0
 20
0.0
 30
0.0
  3
*Model_Space
  1

  0
ENDBLK
  5
21
330
1F
100
AcDbEntity
  8
0
100
AcDbBlockEnd
  0
BLOCK
  5
75
330
73
100
AcDbEntity
 67
     1
  8
0
100
AcDbBlockBegin
  2
*Paper_Space
 70
     0
 10
0.0
 20
0.0
 30
0.0
  3
*Paper_Space
  1

  0
ENDBLK
  5
76
330
73
100
AcDbEntity
 67
     1
  8
0
100
AcDbBlockEnd
  0
BLOCK
  5
22DB
330
23
100
AcDbEntity
  8
0
100
AcDbBlockBegin
  2
*Paper_Space0
 70
     0
 10
0.0
 20
0.0
 30
0.0
  3
*Paper_Space0
  1

  0
ENDBLK
  5
22DC
330
23
100
AcDbEntity
  8
0
100
AcDbBlockEnd
  0
BLOCK
  5
22DD
330
1D8
100
AcDbEntity
  8
0
100
AcDbBlockBegin
  2
_FILLED
 70
     0
 10
0.0
 20
0.0
 30
0.0
  3
_FILLED
  1

  0
SOLID
  5
1D6
330
1D8
100
AcDbEntity
  8
0
  6
ByBlock
 62
     0
100
AcDbTrace
 10
0.0
 20
0.0
 30
0.0
 11
-1.0
 21
0.1666666667
 31
0.0
 12
-1.0
 22
-0.1666666667
 32
0.0
 13
-1.0
 23
-0.1666666667
 33
0.0
  0
ENDBLK
  5
22DE
330
1D8
100
AcDbEntity
  8
0
100
AcDbBlockEnd
  0
BLOCK
  5
2331
330
20CD
100
AcDbEntity
  8
0
100
AcDbBlockBegin
  2
*D43
 70
     1
 10
0.0
 20
0.0
 30
0.0
  3
*D43
  1

  0
LINE
  5
23DD
330
20CD
100
AcDbEntity
  8
0
 62
     0
370
    -2
100
AcDbLine
 10
744.2163822123708
 20
-23.15146182965903
 30
0.0
 11
744.2163822123708
 21
-30.02454659729388
 31
0.0
  0
LINE
  5
23DE
330
20CD
100
AcDbEntity
  8
0
 62
     0
370
    -2
100
AcDbLine
 10
782.2163822123708
 20
-23.15146182965903
 30
0.0
 11
782.2163822123708
 21
-30.02454659729388
 31
0.0
  0
LINE
  5
23DF
330
20CD
100
AcDbEntity
  8
0
 62
     0
370
    -2
100
AcDbLine
 10
746.7163822123708
 20
-28.77454659729388
 30
0.0
 11
779.7163822123708
 21
-28.77454659729388
 31
0.0
  0
SOLID
  5
23E0
330
20CD
100
AcDbEntity
  8
0
 62
     0
100
AcDbTrace
 10
746.7163822123708
 20
-28.35787993062721
 30
0.0
 11
746.7163822123708
 21
-29.19121326396055
 31
0.0
 12
744.2163822123708
 22
-28.77454659729388
 32
0.0
 13
744.2163822123708
 23
-28.77454659729388
 33
0.0
  0
SOLID
  5
23E1
330
20CD
100
AcDbEntity
  8
0
 62
     0
100
AcDbTrace
 10
779.7163822123708
 20
-29.19121326396055
 30
0.0
 11
779.7163822123708
 21
-28.35787993062721
 31
0.0
 12
782.2163822123708
 22
-28.77454659729388
 32
0.0
 13
782.2163822123708
 23
-28.77454659729388
 33
0.0
  0
MTEXT
  5
23E2
330
20CD
100
AcDbEntity
  8
0
 62
     0
100
AcDbMText
 10
763.2163822123708
 20
-27.14954659729388
 30
0.0
 40
1.0
 41
0.0
 46
0.0
 71
     5
 72
     1
  1
{\H2x;19mm}
 73
     1
 44
1.0
1001
ACAD
1000
MTEXTBEGIN
1070
    73
1070
     1
1070
    44
1040
1.0
1070
    74
1070
     0
1000
MTEXTEND
  0
POINT
  5
23E3
330
20CD
100
AcDbEntity
  8
Defpoints
 62
     0
100
AcDbPoint
 10
744.2163822123708
 20
-20.15146182965903
 30
0.0
  0
POINT
  5
23E4
330
20CD
100
AcDbEntity
  8
Defpoints
 62
     0
100
AcDbPoint
 10
782.2163822123708
 20
-20.15146182965903
 30
0.0
  0
POINT
  5
23E5
330
20CD
100
AcDbEntity
  8
Defpoints
 62
     0
100
AcDbPoint
 10
782.2163822123708
 20
-28.77454659729388
 30
0.0
  0
ENDBLK
  5
2332
330
20CD
100
AcDbEntity
  8
0
100
AcDbBlockEnd
  0
BLOCK
  5
2339
330
2101
100
AcDbEntity
  8
0
100
AcDbBlockBegin
  2
*D47
 70
     1
 10
0.0
 20
0.0
 30
0.0
  3
*D47
  1

  0
POINT
  5
20F8
330
2101
100
AcDbEntity
  8
Defpoints
  6
ByBlock
100
AcDbPoint
 10
584.7722378375549
 20
7.579181494705801
 30
0.0
  0
POINT
  5
20F9
330
2101
100
AcDbEntity
  8
Defpoints
  6
ByBlock
100
AcDbPoint
 10
584.7722378375549
 20
-24.4208185052942
 30
0.0
  0
LINE
  5
20FA
330
2101
100
AcDbEntity
  8
0
  6
ByBlock
 62
     0
370
    -2
100
AcDbLine
 10
581.7722378375549
 20
7.579181494705801
 30
0.0
 11
575.4618264603882
 21
7.579181494705801
 31
0.0
  0
LINE
  5
20FB
330
2101
100
AcDbEntity
  8
0
  6
ByBlock
 62
     0
370
    -2
100
AcDbLine
 10
581.7722378375549
 20
-24.4208185052942
 30
0.0
 11
575.4618264603882
 21
-24.4208185052942
 31
0.0
  0
LINE
  5
20FC
330
2101
100
AcDbEntity
  8
0
  6
ByBlock
 62
     0
370
    -2
100
AcDbLine
 10
576.7118264603882
 20
5.079181494705801
 30
0.0
 11
576.7118264603882
 21
-21.9208185052942
 31
0.0
  0
SOLID
  5
20FD
330
2101
100
AcDbEntity
  8
0
  6
ByBlock
 62
     0
100
AcDbTrace
 10
576.7118264603882
 20
7.579181494705801
 30
0.0
 11
576.2951597937215
 21
5.079181494705801
 31
0.0
 12
577.128493127055
 22
5.079181494705801
 32
0.0
 13
577.128493127055
 23
5.079181494705801
 33
0.0
  0
SOLID
  5
20FE
330
2101
100
AcDbEntity
  8
0
  6
ByBlock
 62
     0
100
AcDbTrace
 10
576.7118264603882
 20
-24.4208185052942
 30
0.0
 11
576.2951597937215
 21
-21.9208185052942
 31
0.0
 12
577.128493127055
 22
-21.9208185052942
 32
0.0
 13
577.128493127055
 23
-21.9208185052942
 33
0.0
  0
MTEXT
  5
20FF
330
2101
100
AcDbEntity
  8
0
  6
ByBlock
 62
     0
100
AcDbMText
 10
575.5868264603882
 20
-8.420818505294198
 30
0.0
 40
1.0
 41
0.0
 46
0.0
 71
     5
 72
     1
  1
16mm
 11
0.0000000000000001
 21
1.0
 31
0.0
 73
     1
 44
1.0
1001
ACAD
1000
MTEXTBEGIN
1070
    73
1070
     1
1070
    44
1040
1.0
1070
    74
1070
     0
1000
MTEXTEND
  0
ENDBLK
  5
233A
330
2101
100
AcDbEntity
  8
0
100
AcDbBlockEnd
  0
BLOCK
  5
233D
330
211B
100
AcDbEntity
  8
0
100
AcDbBlockBegin
  2
*D49
 70
     1
 10
0.0
 20
0.0
 30
0.0
  3
*D49
  1

  0
POINT
  5
2112
330
211B
100
AcDbEntity
  8
Defpoints
  6
ByBlock
100
AcDbPoint
 10
583.7722378375549
 20
-23.4208185052942
 30
0.0
  0
POINT
  5
2113
330
211B
100
AcDbEntity
  8
Defpoints
  6
ByBlock
100
AcDbPoint
 10
615.7722378375549
 20
-23.4208185052942
 30
0.0
  0
LINE
  5
2114
330
211B
100
AcDbEntity
  8
0
  6
ByBlock
 62
     0
370
    -2
100
AcDbLine
 10
583.7722378375549
 20
-26.4208185052942
 30
0.0
 11
583.7722378375549
 21
-32.54085912310703
 31
0.0
  0
LINE
  5
2115
330
211B
100
AcDbEntity
  8
0
  6
ByBlock
 62
     0
370
    -2
100
AcDbLine
 10
615.7722378375549
 20
-26.4208185052942
 30
0.0
 11
615.7722378375549
 21
-32.54085912310703
 31
0.0
  0
LINE
  5
2116
330
211B
100
AcDbEntity
  8
0
  6
ByBlock
 62
     0
370
    -2
100
AcDbLine
 10
586.2722378375549
 20
-31.29085912310703
 30
0.0
 11
613.2722378375549
 21
-31.29085912310703
 31
0.0
  0
SOLID
  5
2117
330
211B
100
AcDbEntity
  8
0
  6
ByBlock
 62
     0
100
AcDbTrace
 10
583.7722378375549
 20
-31.29085912310703
 30
0.0
 11
586.2722378375549
 21
-31.70752578977378
 31
0.0
 12
586.2722378375549
 22
-30.87419245644028
 32
0.0
 13
586.2722378375549
 23
-30.87419245644028
 33
0.0
  0
SOLID
  5
2118
330
211B
100
AcDbEntity
  8
0
  6
ByBlock
 62
     0
100
AcDbTrace
 10
615.7722378375549
 20
-31.29085912310703
 30
0.0
 11
613.2722378375549
 21
-31.70752578977378
 31
0.0
 12
613.2722378375549
 22
-30.87419245644028
 32
0.0
 13
613.2722378375549
 23
-30.87419245644028
 33
0.0
  0
MTEXT
  5
2119
330
211B
100
AcDbEntity
  8
0
  6
ByBlock
 62
     0
100
AcDbMText
 10
599.7722378375549
 20
-30.16585912310703
 30
0.0
 40
1.0
 41
0.0
 46
0.0
 71
     5
 72
     1
  1
16mm
 73
     1
 44
1.0
1001
ACAD
1000
MTEXTBEGIN
1070
    73
1070
     1
1070
    44
1040
1.0
1070
    74
1070
     0
1000
MTEXTEND
  0
ENDBLK
  5
233E
330
211B
100
AcDbEntity
  8
0
100
AcDbBlockEnd
  0
BLOCK
  5
2341
330
2135
100
AcDbEntity
  8
0
100
AcDbBlockBegin
  2
*D51
 70
     1
 10
0.0
 20
0.0
 30
0.0
  3
*D51
  1

  0
LINE
  5
23EF
330
2135
100
AcDbEntity
  8
0
 62
     0
370
    -2
100
AcDbLine
 10
672.7217914981075
 20
15.28056398792641
 30
0.0
 11
667.472725305177
 21
15.28056398792641
 31
0.0
  0
LINE
  5
23F0
330
2135
100
AcDbEntity
  8
0
 62
     0
370
    -2
100
AcDbLine
 10
673.2929256530156
 20
-21.7148002694055
 30
0.0
 11
667.472725305177
 21
-21.7148002694055
 31
0.0
  0
LINE
  5
23F1
330
2135
100
AcDbEntity
  8
0
 62
     0
370
    -2
100
AcDbLine
 10
668.722725305177
 20
12.78056398792641
 30
0.0
 11
668.722725305177
 21
-19.2148002694055
 31
0.0
  0
SOLID
  5
23F2
330
2135
100
AcDbEntity
  8
0
 62
     0
100
AcDbTrace
 10
669.1393919718437
 20
12.78056398792641
 30
0.0
 11
668.3060586385104
 21
12.78056398792641
 31
0.0
 12
668.722725305177
 22
15.28056398792641
 32
0.0
 13
668.722725305177
 23
15.28056398792641
 33
0.0
  0
SOLID
  5
23F3
330
2135
100
AcDbEntity
  8
0
 62
     0
100
AcDbTrace
 10
668.3060586385104
 20
-19.2148002694055
 30
0.0
 11
669.1393919718437
 21
-19.2148002694055
 31
0.0
 12
668.722725305177
 22
-21.7148002694055
 32
0.0
 13
668.722725305177
 23
-21.7148002694055
 33
0.0
  0
MTEXT
  5
23F4
330
2135
100
AcDbEntity
  8
0
 62
     0
100
AcDbMText
 10
667.097725305177
 20
-3.217118140739542
 30
0.0
 40
1.0
 41
0.0
 46
0.0
 71
     5
 72
     1
  1
{\H2x;18mm}
 11
0.0
 21
1.0
 31
0.0
 73
     1
 44
1.0
1001
ACAD
1000
MTEXTBEGIN
1070
    73
1070
     1
1070
    44
1040
1.0
1070
    74
1070
     0
1000
MTEXTEND
  0
POINT
  5
23F5
330
2135
100
AcDbEntity
  8
Defpoints
 62
     0
100
AcDbPoint
 10
675.7217914981075
 20
15.28056398792641
 30
0.0
  0
POINT
  5
23F6
330
2135
100
AcDbEntity
  8
Defpoints
 62
     0
100
AcDbPoint
 10
676.2929256530156
 20
-21.7148002694055
 30
0.0
  0
POINT
  5
23F7
330
2135
100
AcDbEntity
  8
Defpoints
 62
     0
100
AcDbPoint
 10
668.722725305177
 20
-21.7148002694055
 30
0.0
  0
ENDBLK
  5
2342
330
2135
100
AcDbEntity
  8
0
100
AcDbBlockEnd
  0
BLOCK
  5
2345
330
214F
100
AcDbEntity
  8
0
100
AcDbBlockBegin
  2
*D53
 70
     1
 10
0.0
 20
0.0
 30
0.0
  3
*D53
  1

  0
LINE
  5
23E6
330
214F
100
AcDbEntity
  8
0
 62
     0
370
    -2
100
AcDbLine
 10
674.5511039312824
 20
-22.99093809165574
 30
0.0
 11
674.5511039312824
 21
-30.0565664292928
 31
0.0
  0
LINE
  5
23E7
330
214F
100
AcDbEntity
  8
0
 62
     0
370
    -2
100
AcDbLine
 10
712.5511039312824
 20
-22.99093809165574
 30
0.0
 11
712.5511039312824
 21
-30.0565664292928
 31
0.0
  0
LINE
  5
23E8
330
214F
100
AcDbEntity
  8
0
 62
     0
370
    -2
100
AcDbLine
 10
677.0511039312824
 20
-28.8065664292928
 30
0.0
 11
710.0511039312825
 21
-28.8065664292928
 31
0.0
  0
SOLID
  5
23E9
330
214F
100
AcDbEntity
  8
0
 62
     0
100
AcDbTrace
 10
677.0511039312824
 20
-28.38989976262613
 30
0.0
 11
677.0511039312824
 21
-29.22323309595947
 31
0.0
 12
674.5511039312824
 22
-28.8065664292928
 32
0.0
 13
674.5511039312824
 23
-28.8065664292928
 33
0.0
  0
SOLID
  5
23EA
330
214F
100
AcDbEntity
  8
0
 62
     0
100
AcDbTrace
 10
710.0511039312825
 20
-29.22323309595947
 30
0.0
 11
710.0511039312825
 21
-28.38989976262613
 31
0.0
 12
712.5511039312824
 22
-28.8065664292928
 32
0.0
 13
712.5511039312824
 23
-28.8065664292928
 33
0.0
  0
MTEXT
  5
23EB
330
214F
100
AcDbEntity
  8
0
 62
     0
100
AcDbMText
 10
693.5511039312824
 20
-27.1815664292928
 30
0.0
 40
1.0
 41
0.0
 46
0.0
 71
     5
 72
     1
  1
{\H2x;19mm}
 73
     1
 44
1.0
1001
ACAD
1000
MTEXTBEGIN
1070
    73
1070
     1
1070
    44
1040
1.0
1070
    74
1070
     0
1000
MTEXTEND
  0
POINT
  5
23EC
330
214F
100
AcDbEntity
  8
Defpoints
 62
     0
100
AcDbPoint
 10
674.5511039312824
 20
-19.99093809165573
 30
0.0
  0
POINT
  5
23ED
330
214F
100
AcDbEntity
  8
Defpoints
 62
     0
100
AcDbPoint
 10
712.5511039312824
 20
-19.99093809165573
 30
0.0
  0
POINT
  5
23EE
330
214F
100
AcDbEntity
  8
Defpoints
 62
     0
100
AcDbPoint
 10
712.5511039312824
 20
-28.8065664292928
 30
0.0
  0
ENDBLK
  5
2346
330
214F
100
AcDbEntity
  8
0
100
AcDbBlockEnd
  0
BLOCK
  5
2349
330
2169
100
AcDbEntity
  8
0
100
AcDbBlockBegin
  2
*D55
 70
     1
 10
0.0
 20
0.0
 30
0.0
  3
*D55
  1

  0
LINE
  5
23D4
330
2169
100
AcDbEntity
  8
0
 62
     0
370
    -2
100
AcDbLine
 10
785.2163822123708
 20
15.30328528483896
 30
0.0
 11
790.3988889461073
 21
15.30328528483896
 31
0.0
  0
LINE
  5
23D5
330
2169
100
AcDbEntity
  8
0
 62
     0
370
    -2
100
AcDbLine
 10
785.2163822123708
 20
-21.69671471516104
 30
0.0
 11
790.3988889461073
 21
-21.69671471516104
 31
0.0
  0
LINE
  5
23D6
330
2169
100
AcDbEntity
  8
0
 62
     0
370
    -2
100
AcDbLine
 10
789.1488889461073
 20
12.80328528483896
 30
0.0
 11
789.1488889461073
 21
-19.19671471516103
 31
0.0
  0
SOLID
  5
23D7
330
2169
100
AcDbEntity
  8
0
 62
     0
100
AcDbTrace
 10
789.5655556127739
 20
12.80328528483896
 30
0.0
 11
788.7322222794407
 21
12.80328528483896
 31
0.0
 12
789.1488889461073
 22
15.30328528483896
 32
0.0
 13
789.1488889461073
 23
15.30328528483896
 33
0.0
  0
SOLID
  5
23D8
330
2169
100
AcDbEntity
  8
0
 62
     0
100
AcDbTrace
 10
788.7322222794407
 20
-19.19671471516103
 30
0.0
 11
789.5655556127739
 21
-19.19671471516103
 31
0.0
 12
789.1488889461073
 22
-21.69671471516104
 32
0.0
 13
789.1488889461073
 23
-21.69671471516104
 33
0.0
  0
MTEXT
  5
23D9
330
2169
100
AcDbEntity
  8
0
 62
     0
100
AcDbMText
 10
787.5238889461074
 20
-3.196714715161035
 30
0.0
 40
1.0
 41
0.0
 46
0.0
 71
     5
 72
     1
  1
{\H2x;19.5mm}
 11
0.0
 21
1.0
 31
0.0
 73
     1
 44
1.0
1001
ACAD
1000
MTEXTBEGIN
1070
    73
1070
     1
1070
    44
1040
1.0
1070
    74
1070
     0
1000
MTEXTEND
  0
POINT
  5
23DA
330
2169
100
AcDbEntity
  8
Defpoints
 62
     0
100
AcDbPoint
 10
782.2163822123708
 20
15.30328528483896
 30
0.0
  0
POINT
  5
23DB
330
2169
100
AcDbEntity
  8
Defpoints
 62
     0
100
AcDbPoint
 10
782.2163822123708
 20
-21.69671471516104
 30
0.0
  0
POINT
  5
23DC
330
2169
100
AcDbEntity
  8
Defpoints
 62
     0
100
AcDbPoint
 10
789.1488889461073
 20
-21.69671471516104
 30
0.0
  0
ENDBLK
  5
234A
330
2169
100
AcDbEntity
  8
0
100
AcDbBlockEnd
  0
BLOCK
  5
2363
330
2244
100
AcDbEntity
  8
0
100
AcDbBlockBegin
  2
*D68
 70
     1
 10
0.0
 20
0.0
 30
0.0
  3
*D68
  1

  0
POINT
  5
223B
330
2244
100
AcDbEntity
  8
Defpoints
  6
ByBlock
100
AcDbPoint
 10
367.2235225380754
 20
12.39372285805675
 30
0.0
  0
POINT
  5
223C
330
2244
100
AcDbEntity
  8
Defpoints
  6
ByBlock
100
AcDbPoint
 10
367.2235225380754
 20
32.39372285805675
 30
0.0
  0
LINE
  5
223D
330
2244
100
AcDbEntity
  8
0
  6
ByBlock
 62
     0
370
    -2
100
AcDbLine
 10
364.2235225380754
 20
12.39372285805675
 30
0.0
 11
361.7601373191539
 21
12.39372285805675
 31
0.0
  0
LINE
  5
223E
330
2244
100
AcDbEntity
  8
0
  6
ByBlock
 62
     0
370
    -2
100
AcDbLine
 10
364.2235225380754
 20
32.39372285805675
 30
0.0
 11
361.7601373191539
 21
32.39372285805675
 31
0.0
  0
LINE
  5
223F
330
2244
100
AcDbEntity
  8
0
  6
ByBlock
 62
     0
370
    -2
100
AcDbLine
 10
363.010137319154
 20
14.89372285805675
 30
0.0
 11
363.010137319154
 21
29.89372285805675
 31
0.0
  0
SOLID
  5
2240
330
2244
100
AcDbEntity
  8
0
  6
ByBlock
 62
     0
100
AcDbTrace
 10
363.010137319154
 20
12.39372285805675
 30
0.0
 11
363.4268039858207
 21
14.89372285805675
 31
0.0
 12
362.5934706524872
 22
14.89372285805675
 32
0.0
 13
362.5934706524872
 23
14.89372285805675
 33
0.0
  0
SOLID
  5
2241
330
2244
100
AcDbEntity
  8
0
  6
ByBlock
 62
     0
100
AcDbTrace
 10
363.010137319154
 20
32.39372285805675
 30
0.0
 11
363.4268039858207
 21
29.89372285805675
 31
0.0
 12
362.5934706524872
 22
29.89372285805675
 32
0.0
 13
362.5934706524872
 23
29.89372285805675
 33
0.0
  0
MTEXT
  5
2242
330
2244
100
AcDbEntity
  8
0
  6
ByBlock
 62
     0
100
AcDbMText
 10
361.885137319154
 20
22.39372285805675
 30
0.0
 40
1.0
 41
0.0
 46
0.0
 71
     5
 72
     1
  1
20mm
 11
0.0000000000000001
 21
1.0
 31
0.0
 73
     1
 44
1.0
1001
ACAD
1000
MTEXTBEGIN
1070
    73
1070
     1
1070
    44
1040
1.0
1070
    74
1070
     0
1000
MTEXTEND
  0
ENDBLK
  5
2364
330
2244
100
AcDbEntity
  8
0
100
AcDbBlockEnd
  0
BLOCK
  5
2365
330
2251
100
AcDbEntity
  8
0
100
AcDbBlockBegin
  2
*D69
 70
     1
 10
0.0
 20
0.0
 30
0.0
  3
*D69
  1

  0
POINT
  5
2248
330
2251
100
AcDbEntity
  8
Defpoints
  6
ByBlock
100
AcDbPoint
 10
365.2493376376112
 20
13.89372285805675
 30
0.0
  0
POINT
  5
2249
330
2251
100
AcDbEntity
  8
Defpoints
  6
ByBlock
100
AcDbPoint
 10
375.2493376376112
 20
12.89372285805675
 30
0.0
  0
LINE
  5
224A
330
2251
100
AcDbEntity
  8
0
  6
ByBlock
 62
     0
370
    -2
100
AcDbLine
 10
365.2493376376112
 20
10.89372285805675
 30
0.0
 11
365.2493376376112
 21
8.095462651117173
 31
0.0
  0
LINE
  5
224B
330
2251
100
AcDbEntity
  8
0
  6
ByBlock
 62
     0
370
    -2
100
AcDbLine
 10
375.2493376376112
 20
9.893722858056747
 30
0.0
 11
375.2493376376112
 21
8.095462651117173
 31
0.0
  0
LINE
  5
224C
330
2251
100
AcDbEntity
  8
0
  6
ByBlock
 62
     0
370
    -2
100
AcDbLine
 10
367.7493376376113
 20
9.345462651117173
 30
0.0
 11
372.7493376376112
 21
9.345462651117173
 31
0.0
  0
SOLID
  5
224D
330
2251
100
AcDbEntity
  8
0
  6
ByBlock
 62
     0
100
AcDbTrace
 10
365.2493376376112
 20
9.345462651117173
 30
0.0
 11
367.7493376376113
 21
8.928795984450424
 31
0.0
 12
367.7493376376113
 22
9.762129317783923
 32
0.0
 13
367.7493376376113
 23
9.762129317783923
 33
0.0
  0
SOLID
  5
224E
330
2251
100
AcDbEntity
  8
0
  6
ByBlock
 62
     0
100
AcDbTrace
 10
375.2493376376112
 20
9.345462651117173
 30
0.0
 11
372.7493376376112
 21
8.928795984450424
 31
0.0
 12
372.7493376376112
 22
9.762129317783923
 32
0.0
 13
372.7493376376112
 23
9.762129317783923
 33
0.0
  0
MTEXT
  5
224F
330
2251
100
AcDbEntity
  8
0
  6
ByBlock
 62
     0
100
AcDbMText
 10
370.2493376376112
 20
10.47046265111717
 30
0.0
 40
1.0
 41
0.0
 46
0.0
 71
     5
 72
     1
  1
10mm
 73
     1
 44
1.0
1001
ACAD
1000
MTEXTBEGIN
1070
    73
1070
     1
1070
    44
1040
1.0
1070
    74
1070
     0
1000
MTEXTEND
  0
ENDBLK
  5
2366
330
2251
100
AcDbEntity
  8
0
100
AcDbBlockEnd
  0
BLOCK
  5
2367
330
225E
100
AcDbEntity
  8
0
100
AcDbBlockBegin
  2
*D70
 70
     1
 10
0.0
 20
0.0
 30
0.0
  3
*D70
  1

  0
POINT
  5
2255
330
225E
100
AcDbEntity
  8
Defpoints
  6
ByBlock
100
AcDbPoint
 10
391.6641108990471
 20
-19.95131031553816
 30
0.0
  0
POINT
  5
2256
330
225E
100
AcDbEntity
  8
Defpoints
  6
ByBlock
100
AcDbPoint
 10
404.0723470569579
 20
-19.74760259624185
 30
0.0
  0
LINE
  5
2257
330
225E
100
AcDbEntity
  8
0
  6
ByBlock
 62
     0
370
    -2
100
AcDbLine
 10
391.6641108990471
 20
-22.95131031553816
 30
0.0
 11
391.6641108990471
 21
-25.02769281579191
 31
0.0
  0
LINE
  5
2258
330
225E
100
AcDbEntity
  8
0
  6
ByBlock
 62
     0
370
    -2
100
AcDbLine
 10
404.0723470569579
 20
-22.74760259624185
 30
0.0
 11
404.0723470569579
 21
-25.02769281579191
 31
0.0
  0
LINE
  5
2259
330
225E
100
AcDbEntity
  8
0
  6
ByBlock
 62
     0
370
    -2
100
AcDbLine
 10
394.164110899047
 20
-23.77769281579191
 30
0.0
 11
401.5723470569579
 21
-23.77769281579191
 31
0.0
  0
SOLID
  5
225A
330
225E
100
AcDbEntity
  8
0
  6
ByBlock
 62
     0
100
AcDbTrace
 10
391.6641108990471
 20
-23.77769281579191
 30
0.0
 11
394.164110899047
 21
-24.19435948245866
 31
0.0
 12
394.164110899047
 22
-23.36102614912516
 32
0.0
 13
394.164110899047
 23
-23.36102614912516
 33
0.0
  0
SOLID
  5
225B
330
225E
100
AcDbEntity
  8
0
  6
ByBlock
 62
     0
100
AcDbTrace
 10
404.0723470569579
 20
-23.77769281579191
 30
0.0
 11
401.5723470569579
 21
-24.19435948245866
 31
0.0
 12
401.5723470569579
 22
-23.36102614912516
 32
0.0
 13
401.5723470569579
 23
-23.36102614912516
 33
0.0
  0
MTEXT
  5
225C
330
225E
100
AcDbEntity
  8
0
  6
ByBlock
 62
     0
100
AcDbMText
 10
397.8682289780025
 20
-22.65269281579191
 30
0.0
 40
1.0
 41
0.0
 46
0.0
 71
     5
 72
     1
  1
12.4mm
 73
     1
 44
1.0
1001
ACAD
1000
MTEXTBEGIN
1070
    73
1070
     1
1070
    44
1040
1.0
1070
    74
1070
     0
1000
MTEXTEND
  0
ENDBLK
  5
2368
330
225E
100
AcDbEntity
  8
0
100
AcDbBlockEnd
  0
BLOCK
  5
2369
330
226B
100
AcDbEntity
  8
0
100
AcDbBlockBegin
  2
*D71
 70
     1
 10
0.0
 20
0.0
 30
0.0
  3
*D71
  1

  0
POINT
  5
2262
330
226B
100
AcDbEntity
  8
Defpoints
  6
ByBlock
100
AcDbPoint
 10
392.3138705443032
 20
-20.30692560887698
 30
0.0
  0
POINT
  5
2263
330
226B
100
AcDbEntity
  8
Defpoints
  6
ByBlock
100
AcDbPoint
 10
391.1643298536871
 20
3.070392285536883
 30
0.0
  0
LINE
  5
2264
330
226B
100
AcDbEntity
  8
0
  6
ByBlock
 62
     0
370
    -2
100
AcDbLine
 10
389.3138705443032
 20
-20.30692560887698
 30
0.0
 11
387.1350046469863
 21
-20.30692560887698
 31
0.0
  0
LINE
  5
2265
330
226B
100
AcDbEntity
  8
0
  6
ByBlock
 62
     0
370
    -2
100
AcDbLine
 10
388.1643298536872
 20
3.070392285536883
 30
0.0
 11
387.1350046469863
 21
3.070392285536883
 31
0.0
  0
LINE
  5
2266
330
226B
100
AcDbEntity
  8
0
  6
ByBlock
 62
     0
370
    -2
100
AcDbLine
 10
388.3850046469863
 20
-17.80692560887698
 30
0.0
 11
388.3850046469863
 21
0.5703922855368831
 31
0.0
  0
SOLID
  5
2267
330
226B
100
AcDbEntity
  8
0
  6
ByBlock
 62
     0
100
AcDbTrace
 10
388.3850046469863
 20
-20.30692560887698
 30
0.0
 11
388.8016713136531
 21
-17.80692560887698
 31
0.0
 12
387.9683379803196
 22
-17.80692560887698
 32
0.0
 13
387.9683379803196
 23
-17.80692560887698
 33
0.0
  0
SOLID
  5
2268
330
226B
100
AcDbEntity
  8
0
  6
ByBlock
 62
     0
100
AcDbTrace
 10
388.3850046469863
 20
3.070392285536883
 30
0.0
 11
388.8016713136531
 21
0.5703922855368831
 31
0.0
 12
387.9683379803196
 22
0.5703922855368831
 32
0.0
 13
387.9683379803196
 23
0.5703922855368831
 33
0.0
  0
MTEXT
  5
2269
330
226B
100
AcDbEntity
  8
0
  6
ByBlock
 62
     0
100
AcDbMText
 10
387.2600046469863
 20
-8.618266661670048
 30
0.0
 40
1.0
 41
0.0
 46
0.0
 71
     5
 72
     1
  1
23.4mm
 11
0.0000000000000001
 21
1.0
 31
0.0
 73
     1
 44
1.0
1001
ACAD
1000
MTEXTBEGIN
1070
    73
1070
     1
1070
    44
1040
1.0
1070
    74
1070
     0
1000
MTEXTEND
  0
ENDBLK
  5
236A
330
226B
100
AcDbEntity
  8
0
100
AcDbBlockEnd
  0
BLOCK
  5
236B
330
2278
100
AcDbEntity
  8
0
100
AcDbBlockBegin
  2
*D72
 70
     1
 10
0.0
 20
0.0
 30
0.0
  3
*D72
  1

  0
POINT
  5
226F
330
2278
100
AcDbEntity
  8
Defpoints
  6
ByBlock
100
AcDbPoint
 10
355.8298609849284
 20
-19.59843790650987
 30
0.0
  0
POINT
  5
2270
330
2278
100
AcDbEntity
  8
Defpoints
  6
ByBlock
100
AcDbPoint
 10
368.4474449956367
 20
-19.59843790650987
 30
0.0
  0
LINE
  5
2271
330
2278
100
AcDbEntity
  8
0
  6
ByBlock
 62
     0
370
    -2
100
AcDbLine
 10
355.8298609849284
 20
-22.59843790650987
 30
0.0
 11
355.8298609849284
 21
-24.97323149949341
 31
0.0
  0
LINE
  5
2272
330
2278
100
AcDbEntity
  8
0
  6
ByBlock
 62
     0
370
    -2
100
AcDbLine
 10
368.4474449956367
 20
-22.59843790650987
 30
0.0
 11
368.4474449956367
 21
-24.97323149949341
 31
0.0
  0
LINE
  5
2273
330
2278
100
AcDbEntity
  8
0
  6
ByBlock
 62
     0
370
    -2
100
AcDbLine
 10
358.3298609849284
 20
-23.72323149949341
 30
0.0
 11
365.9474449956367
 21
-23.72323149949341
 31
0.0
  0
SOLID
  5
2274
330
2278
100
AcDbEntity
  8
0
  6
ByBlock
 62
     0
100
AcDbTrace
 10
355.8298609849284
 20
-23.72323149949341
 30
0.0
 11
358.3298609849284
 21
-24.13989816616016
 31
0.0
 12
358.3298609849284
 22
-23.30656483282666
 32
0.0
 13
358.3298609849284
 23
-23.30656483282666
 33
0.0
  0
SOLID
  5
2275
330
2278
100
AcDbEntity
  8
0
  6
ByBlock
 62
     0
100
AcDbTrace
 10
368.4474449956367
 20
-23.72323149949341
 30
0.0
 11
365.9474449956367
 21
-24.13989816616016
 31
0.0
 12
365.9474449956367
 22
-23.30656483282666
 32
0.0
 13
365.9474449956367
 23
-23.30656483282666
 33
0.0
  0
MTEXT
  5
2276
330
2278
100
AcDbEntity
  8
0
  6
ByBlock
 62
     0
100
AcDbMText
 10
362.1386529902825
 20
-22.59823149949341
 30
0.0
 40
1.0
 41
0.0
 46
0.0
 71
     5
 72
     1
  1
12.6mm
 73
     1
 44
1.0
1001
ACAD
1000
MTEXTBEGIN
1070
    73
1070
     1
1070
    44
1040
1.0
1070
    74
1070
     0
1000
MTEXTEND
  0
ENDBLK
  5
236C
330
2278
100
AcDbEntity
  8
0
100
AcDbBlockEnd
  0
BLOCK
  5
236D
330
2285
100
AcDbEntity
  8
0
100
AcDbBlockBegin
  2
*D73
 70
     1
 10
0.0
 20
0.0
 30
0.0
  3
*D73
  1

  0
POINT
  5
227C
330
2285
100
AcDbEntity
  8
Defpoints
  6
ByBlock
100
AcDbPoint
 10
356.4744228992106
 20
-20.26569170221501
 30
0.0
  0
POINT
  5
227D
330
2285
100
AcDbEntity
  8
Defpoints
  6
ByBlock
100
AcDbPoint
 10
355.1044021701125
 20
3.070392285536883
 30
0.0
  0
LINE
  5
227E
330
2285
100
AcDbEntity
  8
0
  6
ByBlock
 62
     0
370
    -2
100
AcDbLine
 10
353.4744228992106
 20
-20.26569170221501
 30
0.0
 11
350.6844522122262
 21
-20.26569170221501
 31
0.0
  0
LINE
  5
227F
330
2285
100
AcDbEntity
  8
0
  6
ByBlock
 62
     0
370
    -2
100
AcDbLine
 10
352.1044021701125
 20
3.070392285536883
 30
0.0
 11
350.6844522122262
 21
3.070392285536883
 31
0.0
  0
LINE
  5
2280
330
2285
100
AcDbEntity
  8
0
  6
ByBlock
 62
     0
370
    -2
100
AcDbLine
 10
351.9344522122263
 20
-17.76569170221501
 30
0.0
 11
351.9344522122263
 21
0.5703922855368831
 31
0.0
  0
SOLID
  5
2281
330
2285
100
AcDbEntity
  8
0
  6
ByBlock
 62
     0
100
AcDbTrace
 10
351.9344522122263
 20
-20.26569170221501
 30
0.0
 11
352.351118878893
 21
-17.76569170221501
 31
0.0
 12
351.5177855455595
 22
-17.76569170221501
 32
0.0
 13
351.5177855455595
 23
-17.76569170221501
 33
0.0
  0
SOLID
  5
2282
330
2285
100
AcDbEntity
  8
0
  6
ByBlock
 62
     0
100
AcDbTrace
 10
351.9344522122263
 20
3.070392285536883
 30
0.0
 11
352.351118878893
 21
0.5703922855368831
 31
0.0
 12
351.5177855455595
 22
0.5703922855368831
 32
0.0
 13
351.5177855455595
 23
0.5703922855368831
 33
0.0
  0
MTEXT
  5
2283
330
2285
100
AcDbEntity
  8
0
  6
ByBlock
 62
     0
100
AcDbMText
 10
350.8094522122263
 20
-8.597649708339062
 30
0.0
 40
1.0
 41
0.0
 46
0.0
 71
     5
 72
     1
  1
23.3mm
 11
0.0000000000000001
 21
1.0
 31
0.0
 73
     1
 44
1.0
1001
ACAD
1000
MTEXTBEGIN
1070
    73
1070
     1
1070
    44
1040
1.0
1070
    74
1070
     0
1000
MTEXTEND
  0
ENDBLK
  5
236E
330
2285
100
AcDbEntity
  8
0
100
AcDbBlockEnd
  0
BLOCK
  5
236F
330
2292
100
AcDbEntity
  8
0
100
AcDbBlockBegin
  2
*D74
 70
     1
 10
0.0
 20
0.0
 30
0.0
  3
*D74
  1

  0
POINT
  5
2289
330
2292
100
AcDbEntity
  8
Defpoints
  6
ByBlock
100
AcDbPoint
 10
378.852375374418
 20
213.7286328492276
 30
0.0
  0
POINT
  5
228A
330
2292
100
AcDbEntity
  8
Defpoints
  6
ByBlock
100
AcDbPoint
 10
394.852375374418
 20
213.7286328492276
 30
0.0
  0
LINE
  5
228B
330
2292
100
AcDbEntity
  8
0
  6
ByBlock
 62
     0
370
    -2
100
AcDbLine
 10
378.852375374418
 20
210.7286328492275
 30
0.0
 11
378.852375374418
 21
208.5436125403211
 31
0.0
  0
LINE
  5
228C
330
2292
100
AcDbEntity
  8
0
  6
ByBlock
 62
     0
370
    -2
100
AcDbLine
 10
394.852375374418
 20
210.7286328492275
 30
0.0
 11
394.852375374418
 21
208.5436125403211
 31
0.0
  0
LINE
  5
228D
330
2292
100
AcDbEntity
  8
0
  6
ByBlock
 62
     0
370
    -2
100
AcDbLine
 10
381.352375374418
 20
209.7936125403211
 30
0.0
 11
392.352375374418
 21
209.7936125403211
 31
0.0
  0
SOLID
  5
228E
330
2292
100
AcDbEntity
  8
0
  6
ByBlock
 62
     0
100
AcDbTrace
 10
378.852375374418
 20
209.7936125403211
 30
0.0
 11
381.352375374418
 21
209.3769458736544
 31
0.0
 12
381.352375374418
 22
210.2102792069879
 32
0.0
 13
381.352375374418
 23
210.2102792069879
 33
0.0
  0
SOLID
  5
228F
330
2292
100
AcDbEntity
  8
0
  6
ByBlock
 62
     0
100
AcDbTrace
 10
394.852375374418
 20
209.7936125403211
 30
0.0
 11
392.352375374418
 21
209.3769458736544
 31
0.0
 12
392.352375374418
 22
210.2102792069879
 32
0.0
 13
392.352375374418
 23
210.2102792069879
 33
0.0
  0
MTEXT
  5
2290
330
2292
100
AcDbEntity
  8
0
  6
ByBlock
 62
     0
100
AcDbMText
 10
386.852375374418
 20
210.9186125403212
 30
0.0
 40
1.0
 41
0.0
 46
0.0
 71
     5
 72
     1
  1
\A0;16mm
 73
     1
 44
1.0
1001
ACAD
1000
MTEXTBEGIN
1070
    73
1070
     1
1070
    44
1040
1.0
1070
    74
1070
     0
1000
MTEXTEND
  0
ENDBLK
  5
2370
330
2292
100
AcDbEntity
  8
0
100
AcDbBlockEnd
  0
BLOCK
  5
2371
330
229F
100
AcDbEntity
  8
0
100
AcDbBlockBegin
  2
*D75
 70
     1
 10
0.0
 20
0.0
 30
0.0
  3
*D75
  1

  0
POINT
  5
2296
330
229F
100
AcDbEntity
  8
Defpoints
  6
ByBlock
100
AcDbPoint
 10
379.352375374418
 20
229.2286328492275
 30
0.0
  0
POINT
  5
2297
330
229F
100
AcDbEntity
  8
Defpoints
  6
ByBlock
100
AcDbPoint
 10
379.352375374418
 20
213.2286328492276
 30
0.0
  0
LINE
  5
2298
330
229F
100
AcDbEntity
  8
0
  6
ByBlock
 62
     0
370
    -2
100
AcDbLine
 10
376.352375374418
 20
229.2286328492275
 30
0.0
 11
374.0721696858346
 21
229.2286328492275
 31
0.0
  0
LINE
  5
2299
330
229F
100
AcDbEntity
  8
0
  6
ByBlock
 62
     0
370
    -2
100
AcDbLine
 10
376.352375374418
 20
213.2286328492276
 30
0.0
 11
374.0721696858346
 21
213.2286328492276
 31
0.0
  0
LINE
  5
229A
330
229F
100
AcDbEntity
  8
0
  6
ByBlock
 62
     0
370
    -2
100
AcDbLine
 10
375.3221696858346
 20
226.7286328492275
 30
0.0
 11
375.3221696858346
 21
215.7286328492276
 31
0.0
  0
SOLID
  5
229B
330
229F
100
AcDbEntity
  8
0
  6
ByBlock
 62
     0
100
AcDbTrace
 10
375.3221696858346
 20
229.2286328492275
 30
0.0
 11
374.9055030191679
 21
226.7286328492275
 31
0.0
 12
375.7388363525014
 22
226.7286328492275
 32
0.0
 13
375.7388363525014
 23
226.7286328492275
 33
0.0
  0
SOLID
  5
229C
330
229F
100
AcDbEntity
  8
0
  6
ByBlock
 62
     0
100
AcDbTrace
 10
375.3221696858346
 20
213.2286328492276
 30
0.0
 11
374.9055030191679
 21
215.7286328492276
 31
0.0
 12
375.7388363525014
 22
215.7286328492276
 32
0.0
 13
375.7388363525014
 23
215.7286328492276
 33
0.0
  0
MTEXT
  5
229D
330
229F
100
AcDbEntity
  8
0
  6
ByBlock
 62
     0
100
AcDbMText
 10
374.1971696858346
 20
221.2286328492275
 30
0.0
 40
1.0
 41
0.0
 46
0.0
 71
     5
 72
     1
  1
\A0;16mm
 11
0.0000000000000001
 21
1.0
 31
0.0
 73
     1
 44
1.0
1001
ACAD
1000
MTEXTBEGIN
1070
    73
1070
     1
1070
    44
1040
1.0
1070
    74
1070
     0
1000
MTEXTEND
  0
ENDBLK
  5
2372
330
229F
100
AcDbEntity
  8
0
100
AcDbBlockEnd
  0
BLOCK
  5
2373
330
22AC
100
AcDbEntity
  8
0
100
AcDbBlockBegin
  2
*D76
 70
     1
 10
0.0
 20
0.0
 30
0.0
  3
*D76
  1

  0
LINE
  5
23C2
330
22AC
100
AcDbEntity
  8
0
 62
     0
370
    -2
100
AcDbLine
 10
402.1707057874309
 20
194.1509933453975
 30
0.0
 11
403.8869591542992
 21
194.1509933453975
 31
0.0
  0
LINE
  5
23C3
330
22AC
100
AcDbEntity
  8
0
 62
     0
370
    -2
100
AcDbLine
 10
402.1707057874309
 20
175.6509933453974
 30
0.0
 11
403.8869591542992
 21
175.6509933453974
 31
0.0
  0
LINE
  5
23C4
330
22AC
100
AcDbEntity
  8
0
 62
     0
370
    -2
100
AcDbLine
 10
402.6369591542992
 20
191.6509933453975
 30
0.0
 11
402.6369591542992
 21
178.1509933453975
 31
0.0
  0
SOLID
  5
23C5
330
22AC
100
AcDbEntity
  8
0
 62
     0
100
AcDbTrace
 10
403.0536258209659
 20
191.6509933453975
 30
0.0
 11
402.2202924876325
 21
191.6509933453975
 31
0.0
 12
402.6369591542992
 22
194.1509933453975
 32
0.0
 13
402.6369591542992
 23
194.1509933453975
 33
0.0
  0
SOLID
  5
23C6
330
22AC
100
AcDbEntity
  8
0
 62
     0
100
AcDbTrace
 10
402.2202924876325
 20
178.1509933453975
 30
0.0
 11
403.0536258209659
 21
178.1509933453975
 31
0.0
 12
402.6369591542992
 22
175.6509933453974
 32
0.0
 13
402.6369591542992
 23
175.6509933453974
 33
0.0
  0
MTEXT
  5
23C7
330
22AC
100
AcDbEntity
  8
0
 62
     0
100
AcDbMText
 10
401.4167210590612
 20
184.9009933453974
 30
0.0
 40
1.0
 41
0.0
 46
0.0
 71
     5
 72
     1
  1
18,5mm
 11
0.0
 21
1.0
 31
0.0
 73
     1
 44
1.0
1001
ACAD
1000
MTEXTBEGIN
1070
    73
1070
     1
1070
    44
1040
1.0
1070
    74
1070
     0
1000
MTEXTEND
  0
POINT
  5
23C8
330
22AC
100
AcDbEntity
  8
Defpoints
 62
     0
100
AcDbPoint
 10
399.170705787431
 20
194.1509933453975
 30
0.0
  0
POINT
  5
23C9
330
22AC
100
AcDbEntity
  8
Defpoints
 62
     0
100
AcDbPoint
 10
399.170705787431
 20
175.6509933453974
 30
0.0
  0
POINT
  5
23CA
330
22AC
100
AcDbEntity
  8
Defpoints
 62
     0
100
AcDbPoint
 10
402.6369591542992
 20
175.6509933453974
 30
0.0
  0
ENDBLK
  5
2374
330
22AC
100
AcDbEntity
  8
0
100
AcDbBlockEnd
  0
BLOCK
  5
2375
330
22B9
100
AcDbEntity
  8
0
100
AcDbBlockBegin
  2
*D77
 70
     1
 10
0.0
 20
0.0
 30
0.0
  3
*D77
  1

  0
POINT
  5
22B0
330
22B9
100
AcDbEntity
  8
Defpoints
  6
ByBlock
100
AcDbPoint
 10
345.9234104302993
 20
194.1396326969412
 30
0.0
  0
POINT
  5
22B1
330
22B9
100
AcDbEntity
  8
Defpoints
  6
ByBlock
100
AcDbPoint
 10
346.2089775077533
 20
175.6419505682752
 30
0.0
  0
LINE
  5
22B2
330
22B9
100
AcDbEntity
  8
0
  6
ByBlock
 62
     0
370
    -2
100
AcDbLine
 10
342.9234104302993
 20
194.1396326969412
 30
0.0
 11
341.1738773338341
 21
194.1396326969412
 31
0.0
  0
LINE
  5
22B3
330
22B9
100
AcDbEntity
  8
0
  6
ByBlock
 62
     0
370
    -2
100
AcDbLine
 10
343.2089775077533
 20
175.6419505682752
 30
0.0
 11
341.1738773338341
 21
175.6419505682752
 31
0.0
  0
LINE
  5
22B4
330
22B9
100
AcDbEntity
  8
0
  6
ByBlock
 62
     0
370
    -2
100
AcDbLine
 10
342.4238773338341
 20
191.6396326969412
 30
0.0
 11
342.4238773338341
 21
178.1419505682752
 31
0.0
  0
SOLID
  5
22B5
330
22B9
100
AcDbEntity
  8
0
  6
ByBlock
 62
     0
100
AcDbTrace
 10
342.4238773338341
 20
194.1396326969412
 30
0.0
 11
342.0072106671673
 21
191.6396326969412
 31
0.0
 12
342.8405440005008
 22
191.6396326969412
 32
0.0
 13
342.8405440005008
 23
191.6396326969412
 33
0.0
  0
SOLID
  5
22B6
330
22B9
100
AcDbEntity
  8
0
  6
ByBlock
 62
     0
100
AcDbTrace
 10
342.4238773338341
 20
175.6419505682752
 30
0.0
 11
342.0072106671673
 21
178.1419505682752
 31
0.0
 12
342.8405440005008
 22
178.1419505682752
 32
0.0
 13
342.8405440005008
 23
178.1419505682752
 33
0.0
  0
MTEXT
  5
22B7
330
22B9
100
AcDbEntity
  8
0
  6
ByBlock
 62
     0
100
AcDbMText
 10
341.2988773338341
 20
184.8907916326082
 30
0.0
 40
1.0
 41
0.0
 46
0.0
 71
     5
 72
     1
  1
\A0;18,5mm
 11
0.0000000000000001
 21
1.0
 31
0.0
 73
     1
 44
1.0
1001
ACAD
1000
MTEXTBEGIN
1070
    73
1070
     1
1070
    44
1040
1.0
1070
    74
1070
     0
1000
MTEXTEND
  0
ENDBLK
  5
2376
330
22B9
100
AcDbEntity
  8
0
100
AcDbBlockEnd
  0
BLOCK
  5
2377
330
22C6
100
AcDbEntity
  8
0
100
AcDbBlockBegin
  2
*D78
 70
     1
 10
0.0
 20
0.0
 30
0.0
  3
*D78
  1

  0
POINT
  5
22BD
330
22C6
100
AcDbEntity
  8
Defpoints
  6
ByBlock
100
AcDbPoint
 10
380.170705787431
 20
176.4236197881484
 30
0.0
  0
POINT
  5
22BE
330
22C6
100
AcDbEntity
  8
Defpoints
  6
ByBlock
100
AcDbPoint
 10
399.170705787431
 20
176.4236197881484
 30
0.0
  0
LINE
  5
22BF
330
22C6
100
AcDbEntity
  8
0
  6
ByBlock
 62
     0
370
    -2
100
AcDbLine
 10
380.170705787431
 20
173.4236197881484
 30
0.0
 11
380.170705787431
 21
170.862077404331
 31
0.0
  0
LINE
  5
22C0
330
22C6
100
AcDbEntity
  8
0
  6
ByBlock
 62
     0
370
    -2
100
AcDbLine
 10
399.170705787431
 20
173.4236197881484
 30
0.0
 11
399.170705787431
 21
170.862077404331
 31
0.0
  0
LINE
  5
22C1
330
22C6
100
AcDbEntity
  8
0
  6
ByBlock
 62
     0
370
    -2
100
AcDbLine
 10
382.670705787431
 20
172.112077404331
 30
0.0
 11
396.670705787431
 21
172.112077404331
 31
0.0
  0
SOLID
  5
22C2
330
22C6
100
AcDbEntity
  8
0
  6
ByBlock
 62
     0
100
AcDbTrace
 10
380.170705787431
 20
172.112077404331
 30
0.0
 11
382.670705787431
 21
171.6954107376643
 31
0.0
 12
382.670705787431
 22
172.5287440709978
 32
0.0
 13
382.670705787431
 23
172.5287440709978
 33
0.0
  0
SOLID
  5
22C3
330
22C6
100
AcDbEntity
  8
0
  6
ByBlock
 62
     0
100
AcDbTrace
 10
399.170705787431
 20
172.112077404331
 30
0.0
 11
396.670705787431
 21
171.6954107376643
 31
0.0
 12
396.670705787431
 22
172.5287440709978
 32
0.0
 13
396.670705787431
 23
172.5287440709978
 33
0.0
  0
MTEXT
  5
22C4
330
22C6
100
AcDbEntity
  8
0
  6
ByBlock
 62
     0
100
AcDbMText
 10
389.6707057874309
 20
173.237077404331
 30
0.0
 40
1.0
 41
0.0
 46
0.0
 71
     5
 72
     1
  1
19mm
 73
     1
 44
1.0
1001
ACAD
1000
MTEXTBEGIN
1070
    73
1070
     1
1070
    44
1040
1.0
1070
    74
1070
     0
1000
MTEXTEND
  0
ENDBLK
  5
2378
330
22C6
100
AcDbEntity
  8
0
100
AcDbBlockEnd
  0
BLOCK
  5
2379
330
22D3
100
AcDbEntity
  8
0
100
AcDbBlockBegin
  2
*D79
 70
     1
 10
0.0
 20
0.0
 30
0.0
  3
*D79
  1

  0
POINT
  5
22CA
330
22D3
100
AcDbEntity
  8
Defpoints
  6
ByBlock
100
AcDbPoint
 10
345.3380666468868
 20
176.5038816571501
 30
0.0
  0
POINT
  5
22CB
330
22D3
100
AcDbEntity
  8
Defpoints
  6
ByBlock
100
AcDbPoint
 10
364.3380666468868
 20
176.5038816571501
 30
0.0
  0
LINE
  5
22CC
330
22D3
100
AcDbEntity
  8
0
  6
ByBlock
 62
     0
370
    -2
100
AcDbLine
 10
345.3380666468868
 20
173.5038816571501
 30
0.0
 11
345.3380666468868
 21
170.8460674883316
 31
0.0
  0
LINE
  5
22CD
330
22D3
100
AcDbEntity
  8
0
  6
ByBlock
 62
     0
370
    -2
100
AcDbLine
 10
364.3380666468868
 20
173.5038816571501
 30
0.0
 11
364.3380666468868
 21
170.8460674883316
 31
0.0
  0
LINE
  5
22CE
330
22D3
100
AcDbEntity
  8
0
  6
ByBlock
 62
     0
370
    -2
100
AcDbLine
 10
347.8380666468868
 20
172.0960674883316
 30
0.0
 11
361.8380666468868
 21
172.0960674883316
 31
0.0
  0
SOLID
  5
22CF
330
22D3
100
AcDbEntity
  8
0
  6
ByBlock
 62
     0
100
AcDbTrace
 10
345.3380666468868
 20
172.0960674883316
 30
0.0
 11
347.8380666468868
 21
171.6794008216648
 31
0.0
 12
347.8380666468868
 22
172.5127341549983
 32
0.0
 13
347.8380666468868
 23
172.5127341549983
 33
0.0
  0
SOLID
  5
22D0
330
22D3
100
AcDbEntity
  8
0
  6
ByBlock
 62
     0
100
AcDbTrace
 10
364.3380666468868
 20
172.0960674883316
 30
0.0
 11
361.8380666468868
 21
171.6794008216648
 31
0.0
 12
361.8380666468868
 22
172.5127341549983
 32
0.0
 13
361.8380666468868
 23
172.5127341549983
 33
0.0
  0
MTEXT
  5
22D1
330
22D3
100
AcDbEntity
  8
0
  6
ByBlock
 62
     0
100
AcDbMText
 10
354.8380666468868
 20
173.2210674883316
 30
0.0
 40
1.0
 41
0.0
 46
0.0
 71
     5
 72
     1
  1
\A0;19mm
 73
     1
 44
1.0
1001
ACAD
1000
MTEXTBEGIN
1070
    73
1070
     1
1070
    44
1040
1.0
1070
    74
1070
     0
1000
MTEXTEND
  0
ENDBLK
  5
237A
330
22D3
100
AcDbEntity
  8
0
100
AcDbBlockEnd
  0
BLOCK
  5
2440
330
243F
100
AcDbEntity
  8
0
100
AcDbBlockBegin
  2
*D81
 70
     1
 10
0.0
 20
0.0
 30
0.0
  3
*D81
  1

  0
POINT
  5
2441
330
243F
100
AcDbEntity
  8
Defpoints
  6
ByBlock
100
AcDbPoint
 10
379.352375374418
 20
229.2286328492275
 30
0.0
  0
POINT
  5
2442
330
243F
100
AcDbEntity
  8
Defpoints
  6
ByBlock
100
AcDbPoint
 10
379.352375374418
 20
213.2286328492276
 30
0.0
  0
LINE
  5
2443
330
243F
100
AcDbEntity
  8
0
  6
ByBlock
 62
     0
370
    -2
100
AcDbLine
 10
376.352375374418
 20
229.2286328492275
 30
0.0
 11
374.0721696858346
 21
229.2286328492275
 31
0.0
  0
LINE
  5
2444
330
243F
100
AcDbEntity
  8
0
  6
ByBlock
 62
     0
370
    -2
100
AcDbLine
 10
376.352375374418
 20
213.2286328492276
 30
0.0
 11
374.0721696858346
 21
213.2286328492276
 31
0.0
  0
LINE
  5
2445
330
243F
100
AcDbEntity
  8
0
  6
ByBlock
 62
     0
370
    -2
100
AcDbLine
 10
375.3221696858346
 20
226.7286328492275
 30
0.0
 11
375.3221696858346
 21
215.7286328492276
 31
0.0
  0
SOLID
  5
2446
330
243F
100
AcDbEntity
  8
0
  6
ByBlock
 62
     0
100
AcDbTrace
 10
375.3221696858346
 20
229.2286328492275
 30
0.0
 11
374.9055030191679
 21
226.7286328492275
 31
0.0
 12
375.7388363525014
 22
226.7286328492275
 32
0.0
 13
375.7388363525014
 23
226.7286328492275
 33
0.0
  0
SOLID
  5
2447
330
243F
100
AcDbEntity
  8
0
  6
ByBlock
 62
     0
100
AcDbTrace
 10
375.3221696858346
 20
213.2286328492276
 30
0.0
 11
374.9055030191679
 21
215.7286328492276
 31
0.0
 12
375.7388363525014
 22
215.7286328492276
 32
0.0
 13
375.7388363525014
 23
215.7286328492276
 33
0.0
  0
MTEXT
  5
2448
330
243F
100
AcDbEntity
  8
0
  6
ByBlock
 62
     0
100
AcDbMText
 10
374.1971696858346
 20
221.2286328492275
 30
0.0
 40
1.0
 41
0.0
 46
0.0
 71
     5
 72
     1
  1
\A0;16mm
 11
0.0000000000000001
 21
1.0
 31
0.0
 73
     1
 44
1.0
1001
ACAD
1000
MTEXTBEGIN
1070
    73
1070
     1
1070
    44
1040
1.0
1070
    74
1070
     0
1000
MTEXTEND
  0
ENDBLK
  5
2449
330
243F
100
AcDbEntity
  8
0
100
AcDbBlockEnd
  0
BLOCK
  5
244C
330
244B
100
AcDbEntity
  8
0
100
AcDbBlockBegin
  2
*D82
 70
     1
 10
0.0
 20
0.0
 30
0.0
  3
*D82
  1

  0
POINT
  5
244D
330
244B
100
AcDbEntity
  8
Defpoints
  6
ByBlock
100
AcDbPoint
 10
378.852375374418
 20
213.7286328492276
 30
0.0
  0
POINT
  5
244E
330
244B
100
AcDbEntity
  8
Defpoints
  6
ByBlock
100
AcDbPoint
 10
394.852375374418
 20
213.7286328492276
 30
0.0
  0
LINE
  5
244F
330
244B
100
AcDbEntity
  8
0
  6
ByBlock
 62
     0
370
    -2
100
AcDbLine
 10
378.852375374418
 20
210.7286328492275
 30
0.0
 11
378.852375374418
 21
208.5436125403211
 31
0.0
  0
LINE
  5
2450
330
244B
100
AcDbEntity
  8
0
  6
ByBlock
 62
     0
370
    -2
100
AcDbLine
 10
394.852375374418
 20
210.7286328492275
 30
0.0
 11
394.852375374418
 21
208.5436125403211
 31
0.0
  0
LINE
  5
2451
330
244B
100
AcDbEntity
  8
0
  6
ByBlock
 62
     0
370
    -2
100
AcDbLine
 10
381.352375374418
 20
209.7936125403211
 30
0.0
 11
392.352375374418
 21
209.7936125403211
 31
0.0
  0
SOLID
  5
2452
330
244B
100
AcDbEntity
  8
0
  6
ByBlock
 62
     0
100
AcDbTrace
 10
378.852375374418
 20
209.7936125403211
 30
0.0
 11
381.352375374418
 21
209.3769458736544
 31
0.0
 12
381.352375374418
 22
210.2102792069879
 32
0.0
 13
381.352375374418
 23
210.2102792069879
 33
0.0
  0
SOLID
  5
2453
330
244B
100
AcDbEntity
  8
0
  6
ByBlock
 62
     0
100
AcDbTrace
 10
394.852375374418
 20
209.7936125403211
 30
0.0
 11
392.352375374418
 21
209.3769458736544
 31
0.0
 12
392.352375374418
 22
210.2102792069879
 32
0.0
 13
392.352375374418
 23
210.2102792069879
 33
0.0
  0
MTEXT
  5
2454
330
244B
100
AcDbEntity
  8
0
  6
ByBlock
 62
     0
100
AcDbMText
 10
386.852375374418
 20
210.9186125403212
 30
0.0
 40
1.0
 41
0.0
 46
0.0
 71
     5
 72
     1
  1
\A0;16mm
 73
     1
 44
1.0
1001
ACAD
1000
MTEXTBEGIN
1070
    73
1070
     1
1070
    44
1040
1.0
1070
    74
1070
     0
1000
MTEXTEND
  0
ENDBLK
  5
2455
330
244B
100
AcDbEntity
  8
0
100
AcDbBlockEnd
  0
BLOCK
  5
2494
330
248A
100
AcDbEntity
  8
0
100
AcDbBlockBegin
  2
*D83
 70
     1
 10
0.0
 20
0.0
 30
0.0
  3
*D83
  1

  0
LINE
  5
24A2
330
248A
100
AcDbEntity
  8
0
 62
     0
370
    -2
100
AcDbLine
 10
378.3793544954818
 20
352.5410769582433
 30
0.0
 11
376.0991488068985
 21
352.5410769582433
 31
0.0
  0
LINE
  5
24A3
330
248A
100
AcDbEntity
  8
0
 62
     0
370
    -2
100
AcDbLine
 10
378.3793544954818
 20
336.5410769582433
 30
0.0
 11
376.0991488068985
 21
336.5410769582433
 31
0.0
  0
LINE
  5
24A4
330
248A
100
AcDbEntity
  8
0
 62
     0
370
    -2
100
AcDbLine
 10
377.3491488068985
 20
350.0410769582433
 30
0.0
 11
377.3491488068985
 21
339.0410769582433
 31
0.0
  0
SOLID
  5
24A5
330
248A
100
AcDbEntity
  8
0
 62
     0
100
AcDbTrace
 10
377.7658154735652
 20
350.0410769582433
 30
0.0
 11
376.9324821402318
 21
350.0410769582433
 31
0.0
 12
377.3491488068985
 22
352.5410769582433
 32
0.0
 13
377.3491488068985
 23
352.5410769582433
 33
0.0
  0
SOLID
  5
24A6
330
248A
100
AcDbEntity
  8
0
 62
     0
100
AcDbTrace
 10
376.9324821402318
 20
339.0410769582433
 30
0.0
 11
377.7658154735652
 21
339.0410769582433
 31
0.0
 12
377.3491488068985
 22
336.5410769582433
 32
0.0
 13
377.3491488068985
 23
336.5410769582433
 33
0.0
  0
MTEXT
  5
24A7
330
248A
100
AcDbEntity
  8
0
 62
     0
100
AcDbMText
 10
376.2241488068985
 20
344.5410769582433
 30
0.0
 40
1.0
 41
0.0
 46
0.0
 71
     5
 72
     1
  1
16mm
 11
0.0
 21
1.0
 31
0.0
 73
     1
 44
1.0
1001
ACAD
1000
MTEXTBEGIN
1070
    73
1070
     1
1070
    44
1040
1.0
1070
    74
1070
     0
1000
MTEXTEND
  0
POINT
  5
24A8
330
248A
100
AcDbEntity
  8
Defpoints
 62
     0
100
AcDbPoint
 10
381.3793544954819
 20
352.5410769582433
 30
0.0
  0
POINT
  5
24A9
330
248A
100
AcDbEntity
  8
Defpoints
 62
     0
100
AcDbPoint
 10
381.3793544954819
 20
336.5410769582433
 30
0.0
  0
POINT
  5
24AA
330
248A
100
AcDbEntity
  8
Defpoints
 62
     0
100
AcDbPoint
 10
377.3491488068985
 20
336.5410769582433
 30
0.0
  0
ENDBLK
  5
2495
330
248A
100
AcDbEntity
  8
0
100
AcDbBlockEnd
  0
BLOCK
  5
24A0
330
2496
100
AcDbEntity
  8
0
100
AcDbBlockBegin
  2
*D84
 70
     1
 10
0.0
 20
0.0
 30
0.0
  3
*D84
  1

  0
LINE
  5
24AB
330
2496
100
AcDbEntity
  8
0
 62
     0
370
    -2
100
AcDbLine
 10
380.8793544954818
 20
334.0410769582433
 30
0.0
 11
380.8793544954818
 21
331.8560566493369
 31
0.0
  0
LINE
  5
24AC
330
2496
100
AcDbEntity
  8
0
 62
     0
370
    -2
100
AcDbLine
 10
396.8793544954818
 20
334.0410769582433
 30
0.0
 11
396.8793544954818
 21
331.8560566493369
 31
0.0
  0
LINE
  5
24AD
330
2496
100
AcDbEntity
  8
0
 62
     0
370
    -2
100
AcDbLine
 10
383.3793544954819
 20
333.1060566493369
 30
0.0
 11
394.3793544954818
 21
333.1060566493369
 31
0.0
  0
SOLID
  5
24AE
330
2496
100
AcDbEntity
  8
0
 62
     0
100
AcDbTrace
 10
383.3793544954819
 20
333.5227233160036
 30
0.0
 11
383.3793544954819
 21
332.6893899826702
 31
0.0
 12
380.8793544954818
 22
333.1060566493369
 32
0.0
 13
380.8793544954818
 23
333.1060566493369
 33
0.0
  0
SOLID
  5
24AF
330
2496
100
AcDbEntity
  8
0
 62
     0
100
AcDbTrace
 10
394.3793544954818
 20
332.6893899826702
 30
0.0
 11
394.3793544954818
 21
333.5227233160036
 31
0.0
 12
396.8793544954818
 22
333.1060566493369
 32
0.0
 13
396.8793544954818
 23
333.1060566493369
 33
0.0
  0
MTEXT
  5
24B0
330
2496
100
AcDbEntity
  8
0
 62
     0
100
AcDbMText
 10
388.8793544954818
 20
334.2310566493369
 30
0.0
 40
1.0
 41
0.0
 46
0.0
 71
     5
 72
     1
  1
16mm
 73
     1
 44
1.0
1001
ACAD
1000
MTEXTBEGIN
1070
    73
1070
     1
1070
    44
1040
1.0
1070
    74
1070
     0
1000
MTEXTEND
  0
POINT
  5
24B1
330
2496
100
AcDbEntity
  8
Defpoints
 62
     0
100
AcDbPoint
 10
380.8793544954818
 20
337.0410769582433
 30
0.0
  0
POINT
  5
24B2
330
2496
100
AcDbEntity
  8
Defpoints
 62
     0
100
AcDbPoint
 10
396.8793544954818
 20
337.0410769582433
 30
0.0
  0
POINT
  5
24B3
330
2496
100
AcDbEntity
  8
Defpoints
 62
     0
100
AcDbPoint
 10
396.8793544954818
 20
333.1060566493369
 30
0.0
  0
ENDBLK
  5
24A1
330
2496
100
AcDbEntity
  8
0
100
AcDbBlockEnd
  0
BLOCK
  5
256A
330
2569
100
AcDbEntity
  8
0
100
AcDbBlockBegin
  2
*D87
 70
     1
 10
0.0
 20
0.0
 30
0.0
  3
*D87
  1

  0
LINE
  5
256B
330
2569
100
AcDbEntity
  8
0
 62
     0
370
    -2
100
AcDbLine
 10
6749.712667188686
 20
-3819.683546710907
 30
0.0
 11
6745.712667188685
 21
-3819.683546710907
 31
0.0
  0
LINE
  5
256C
330
2569
100
AcDbEntity
  8
0
 62
     0
370
    -2
100
AcDbLine
 10
6776.512667188686
 20
-3819.683546710907
 30
0.0
 11
6780.512667188685
 21
-3819.683546710907
 31
0.0
  0
SOLID
  5
256D
330
2569
100
AcDbEntity
  8
0
 62
     0
100
AcDbTrace
 10
6749.712667188686
 20
-3820.350213377574
 30
0.0
 11
6749.712667188686
 21
-3819.01688004424
 31
0.0
 12
6753.712667188685
 22
-3819.683546710907
 32
0.0
 13
6753.712667188685
 23
-3819.683546710907
 33
0.0
  0
SOLID
  5
256E
330
2569
100
AcDbEntity
  8
0
 62
     0
100
AcDbTrace
 10
6776.512667188686
 20
-3819.01688004424
 30
0.0
 11
6776.512667188686
 21
-3820.350213377574
 31
0.0
 12
6772.512667188685
 22
-3819.683546710907
 32
0.0
 13
6772.512667188685
 23
-3819.683546710907
 33
0.0
  0
MTEXT
  5
256F
330
2569
100
AcDbEntity
  8
0
 62
     0
100
AcDbMText
 10
6763.487747426549
 20
-3819.683546710907
 30
0.0
 40
4.0
 41
0.0
 46
0.0
 71
     5
 72
     1
  1
\A1;19
 73
     1
 44
1.0
1001
ACAD
1000
MTEXTBEGIN
1070
    73
1070
     1
1070
    44
1040
1.0
1070
    74
1070
     0
1000
MTEXTEND
  0
POINT
  5
2570
330
2569
100
AcDbEntity
  8
Defpoints
 62
     0
100
AcDbPoint
 10
6753.712667188685
 20
-3808.549025350303
 30
0.0
  0
POINT
  5
2571
330
2569
100
AcDbEntity
  8
Defpoints
 62
     0
100
AcDbPoint
 10
6772.512667188685
 20
-3808.549025350303
 30
0.0
  0
POINT
  5
2572
330
2569
100
AcDbEntity
  8
Defpoints
 62
     0
100
AcDbPoint
 10
6772.512667188685
 20
-3819.683546710907
 30
0.0
  0
ENDBLK
  5
2573
330
2569
100
AcDbEntity
  8
0
100
AcDbBlockEnd
  0
BLOCK
  5
2578
330
2577
100
AcDbEntity
  8
0
100
AcDbBlockBegin
  2
*D88
 70
     1
 10
0.0
 20
0.0
 30
0.0
  3
*D88
  1

  0
LINE
  5
2579
330
2577
100
AcDbEntity
  8
0
 62
     0
370
    -2
100
AcDbLine
 10
6743.531122903019
 20
-3813.549025350303
 30
0.0
 11
6743.531122903019
 21
-3817.549025350303
 31
0.0
  0
LINE
  5
257A
330
2577
100
AcDbEntity
  8
0
 62
     0
370
    -2
100
AcDbLine
 10
6743.531122903019
 20
-3786.149025350303
 30
0.0
 11
6743.531122903019
 21
-3782.149025350303
 31
0.0
  0
SOLID
  5
257B
330
2577
100
AcDbEntity
  8
0
 62
     0
100
AcDbTrace
 10
6744.197789569686
 20
-3813.549025350303
 30
0.0
 11
6742.864456236353
 21
-3813.549025350303
 31
0.0
 12
6743.531122903019
 22
-3809.549025350303
 32
0.0
 13
6743.531122903019
 23
-3809.549025350303
 33
0.0
  0
SOLID
  5
257C
330
2577
100
AcDbEntity
  8
0
 62
     0
100
AcDbTrace
 10
6742.864456236353
 20
-3786.149025350303
 30
0.0
 11
6744.197789569686
 21
-3786.149025350303
 31
0.0
 12
6743.531122903019
 22
-3790.149025350303
 32
0.0
 13
6743.531122903019
 23
-3790.149025350303
 33
0.0
  0
MTEXT
  5
257D
330
2577
100
AcDbEntity
  8
0
 62
     0
100
AcDbMText
 10
6743.531122903019
 20
-3801.1151129243
 30
0.0
 40
4.0
 41
0.0
 46
0.0
 71
     5
 72
     1
  1
\A1;19.5
 73
     1
 44
1.0
1001
ACAD
1000
MTEXTBEGIN
1070
    73
1070
     1
1070
    44
1040
1.0
1070
    74
1070
     0
1000
MTEXTEND
  0
POINT
  5
257E
330
2577
100
AcDbEntity
  8
Defpoints
 62
     0
100
AcDbPoint
 10
6758.037667188687
 20
-3809.549025350303
 30
0.0
  0
POINT
  5
257F
330
2577
100
AcDbEntity
  8
Defpoints
 62
     0
100
AcDbPoint
 10
6754.712667188686
 20
-3790.149025350303
 30
0.0
  0
POINT
  5
2580
330
2577
100
AcDbEntity
  8
Defpoints
 62
     0
100
AcDbPoint
 10
6743.531122903019
 20
-3790.149025350303
 30
0.0
  0
ENDBLK
  5
2581
330
2577
100
AcDbEntity
  8
0
100
AcDbBlockEnd
  0
BLOCK
  5
25B9
330
25B8
100
AcDbEntity
  8
0
100
AcDbBlockBegin
  2
*D89
 70
     1
 10
0.0
 20
0.0
 30
0.0
  3
*D89
  1

  0
LINE
  5
25BA
330
25B8
100
AcDbEntity
  8
0
 62
     0
370
    -2
100
AcDbLine
 10
6877.983750224661
 20
-3819.424732439392
 30
0.0
 11
6873.98375022466
 21
-3819.424732439392
 31
0.0
  0
LINE
  5
25BB
330
25B8
100
AcDbEntity
  8
0
 62
     0
370
    -2
100
AcDbLine
 10
6904.650744479309
 20
-3819.424732439392
 30
0.0
 11
6908.650744479309
 21
-3819.424732439392
 31
0.0
  0
SOLID
  5
25BC
330
25B8
100
AcDbEntity
  8
0
 62
     0
100
AcDbTrace
 10
6877.983750224661
 20
-3820.091399106059
 30
0.0
 11
6877.983750224661
 21
-3818.758065772726
 31
0.0
 12
6881.98375022466
 22
-3819.424732439392
 32
0.0
 13
6881.98375022466
 23
-3819.424732439392
 33
0.0
  0
SOLID
  5
25BD
330
25B8
100
AcDbEntity
  8
0
 62
     0
100
AcDbTrace
 10
6904.650744479309
 20
-3818.758065772726
 30
0.0
 11
6904.650744479309
 21
-3820.091399106059
 31
0.0
 12
6900.65074447931
 22
-3819.424732439392
 32
0.0
 13
6900.65074447931
 23
-3819.424732439392
 33
0.0
  0
MTEXT
  5
25BE
330
25B8
100
AcDbEntity
  8
0
 62
     0
100
AcDbMText
 10
6891.817671662662
 20
-3819.424732439392
 30
0.0
 40
4.0
 41
0.0
 46
0.0
 71
     5
 72
     1
  1
\A1;19
 73
     1
 44
1.0
1001
ACAD
1000
MTEXTBEGIN
1070
    73
1070
     1
1070
    44
1040
1.0
1070
    74
1070
     0
1000
MTEXTEND
  0
POINT
  5
25BF
330
25B8
100
AcDbEntity
  8
Defpoints
 62
     0
100
AcDbPoint
 10
6881.98375022466
 20
-3792.417562251257
 30
0.0
  0
POINT
  5
25C0
330
25B8
100
AcDbEntity
  8
Defpoints
 62
     0
100
AcDbPoint
 10
6900.65074447931
 20
-3792.417562251257
 30
0.0
  0
POINT
  5
25C1
330
25B8
100
AcDbEntity
  8
Defpoints
 62
     0
100
AcDbPoint
 10
6900.65074447931
 20
-3819.424732439392
 30
0.0
  0
ENDBLK
  5
25C2
330
25B8
100
AcDbEntity
  8
0
100
AcDbBlockEnd
  0
BLOCK
  5
25C7
330
25C6
100
AcDbEntity
  8
0
100
AcDbBlockBegin
  2
*D90
 70
     1
 10
0.0
 20
0.0
 30
0.0
  3
*D90
  1

  0
LINE
  5
25C8
330
25C6
100
AcDbEntity
  8
0
 62
     0
370
    -2
100
AcDbLine
 10
6867.072890157223
 20
-3788.333038598907
 30
0.0
 11
6867.072890157223
 21
-3784.333038598907
 31
0.0
  0
LINE
  5
25C9
330
25C6
100
AcDbEntity
  8
0
 62
     0
370
    -2
100
AcDbLine
 10
6867.072890157223
 20
-3814.205002609007
 30
0.0
 11
6867.072890157223
 21
-3818.205002609007
 31
0.0
  0
SOLID
  5
25CA
330
25C6
100
AcDbEntity
  8
0
 62
     0
100
AcDbTrace
 10
6866.406223490556
 20
-3788.333038598907
 30
0.0
 11
6867.739556823891
 21
-3788.333038598907
 31
0.0
 12
6867.072890157223
 22
-3792.333038598907
 32
0.0
 13
6867.072890157223
 23
-3792.333038598907
 33
0.0
  0
SOLID
  5
25CB
330
25C6
100
AcDbEntity
  8
0
 62
     0
100
AcDbTrace
 10
6867.739556823891
 20
-3814.205002609007
 30
0.0
 11
6866.406223490556
 21
-3814.205002609007
 31
0.0
 12
6867.072890157223
 22
-3810.205002609006
 32
0.0
 13
6867.072890157223
 23
-3810.205002609006
 33
0.0
  0
MTEXT
  5
25CC
330
25C6
100
AcDbEntity
  8
0
 62
     0
100
AcDbMText
 10
6867.072890157223
 20
-3802.344929055736
 30
0.0
 40
4.0
 41
0.0
 46
0.0
 71
     5
 72
     1
  1
\A1;18
 73
     1
 44
1.0
1001
ACAD
1000
MTEXTBEGIN
1070
    73
1070
     1
1070
    44
1040
1.0
1070
    74
1070
     0
1000
MTEXTEND
  0
POINT
  5
25CD
330
25C6
100
AcDbEntity
  8
Defpoints
 62
     0
100
AcDbPoint
 10
6882.16501178206
 20
-3792.333038598907
 30
0.0
  0
POINT
  5
25CE
330
25C6
100
AcDbEntity
  8
Defpoints
 62
     0
100
AcDbPoint
 10
6887.81724735201
 20
-3810.205002609006
 30
0.0
  0
POINT
  5
25CF
330
25C6
100
AcDbEntity
  8
Defpoints
 62
     0
100
AcDbPoint
 10
6867.072890157223
 20
-3810.205002609006
 30
0.0
  0
ENDBLK
  5
25D0
330
25C6
100
AcDbEntity
  8
0
100
AcDbBlockEnd
  0
BLOCK
  5
2681
330
2678
100
AcDbEntity
  8
0
100
AcDbBlockBegin
  2
*D91
 70
     1
 10
0.0
 20
0.0
 30
0.0
  3
*D91
  1

  0
LINE
  5
26A4
330
2678
100
AcDbEntity
  8
0
 62
     0
370
    -2
100
AcDbLine
 10
444.6433424102772
 20
323.4089319144337
 30
0.0
 11
440.6433424102772
 21
323.4089319144337
 31
0.0
  0
LINE
  5
26A5
330
2678
100
AcDbEntity
  8
0
 62
     0
370
    -2
100
AcDbLine
 10
471.4433424102773
 20
323.4089319144337
 30
0.0
 11
475.4433424102773
 21
323.4089319144337
 31
0.0
  0
SOLID
  5
26A6
330
2678
100
AcDbEntity
  8
0
 62
     0
100
AcDbTrace
 10
444.6433424102772
 20
322.742265247767
 30
0.0
 11
444.6433424102772
 21
324.0755985811003
 31
0.0
 12
448.6433424102772
 22
323.4089319144337
 32
0.0
 13
448.6433424102772
 23
323.4089319144337
 33
0.0
  0
SOLID
  5
26A7
330
2678
100
AcDbEntity
  8
0
 62
     0
100
AcDbTrace
 10
471.4433424102773
 20
324.0755985811003
 30
0.0
 11
471.4433424102773
 21
322.742265247767
 31
0.0
 12
467.4433424102773
 22
323.4089319144337
 32
0.0
 13
467.4433424102773
 23
323.4089319144337
 33
0.0
  0
MTEXT
  5
26A8
330
2678
100
AcDbEntity
  8
0
 62
     0
100
AcDbMText
 10
458.4184226481413
 20
323.4089319144337
 30
0.0
 40
4.0
 41
0.0
 46
0.0
 71
     5
 72
     1
  1
\A1;19
 73
     1
 44
1.0
1001
ACAD
1000
MTEXTBEGIN
1070
    73
1070
     1
1070
    44
1040
1.0
1070
    74
1070
     0
1000
MTEXTEND
  0
POINT
  5
26A9
330
2678
100
AcDbEntity
  8
Defpoints
 62
     0
100
AcDbPoint
 10
448.6433424102772
 20
334.5434532750374
 30
0.0
  0
POINT
  5
26AA
330
2678
100
AcDbEntity
  8
Defpoints
 62
     0
100
AcDbPoint
 10
467.4433424102773
 20
334.5434532750374
 30
0.0
  0
POINT
  5
26AB
330
2678
100
AcDbEntity
  8
Defpoints
 62
     0
100
AcDbPoint
 10
467.4433424102773
 20
323.4089319144337
 30
0.0
  0
ENDBLK
  5
2682
330
2678
100
AcDbEntity
  8
0
100
AcDbBlockEnd
  0
BLOCK
  5
268C
330
2683
100
AcDbEntity
  8
0
100
AcDbBlockBegin
  2
*D92
 70
     1
 10
0.0
 20
0.0
 30
0.0
  3
*D92
  1

  0
LINE
  5
26AC
330
2683
100
AcDbEntity
  8
0
 62
     0
370
    -2
100
AcDbLine
 10
438.4617981246113
 20
329.5434532750373
 30
0.0
 11
438.4617981246113
 21
325.5434532750373
 31
0.0
  0
LINE
  5
26AD
330
2683
100
AcDbEntity
  8
0
 62
     0
370
    -2
100
AcDbLine
 10
438.4617981246113
 20
356.9434532750374
 30
0.0
 11
438.4617981246113
 21
360.9434532750374
 31
0.0
  0
SOLID
  5
26AE
330
2683
100
AcDbEntity
  8
0
 62
     0
100
AcDbTrace
 10
439.128464791278
 20
329.5434532750373
 30
0.0
 11
437.7951314579446
 21
329.5434532750373
 31
0.0
 12
438.4617981246113
 22
333.5434532750373
 32
0.0
 13
438.4617981246113
 23
333.5434532750373
 33
0.0
  0
SOLID
  5
26AF
330
2683
100
AcDbEntity
  8
0
 62
     0
100
AcDbTrace
 10
437.7951314579446
 20
356.9434532750374
 30
0.0
 11
439.128464791278
 21
356.9434532750374
 31
0.0
 12
438.4617981246113
 22
352.9434532750374
 32
0.0
 13
438.4617981246113
 23
352.9434532750374
 33
0.0
  0
MTEXT
  5
26B0
330
2683
100
AcDbEntity
  8
0
 62
     0
100
AcDbMText
 10
438.4617981246113
 20
341.9773657010401
 30
0.0
 40
4.0
 41
0.0
 46
0.0
 71
     5
 72
     1
  1
\A1;19.5
 73
     1
 44
1.0
1001
ACAD
1000
MTEXTBEGIN
1070
    73
1070
     1
1070
    44
1040
1.0
1070
    74
1070
     0
1000
MTEXTEND
  0
POINT
  5
26B1
330
2683
100
AcDbEntity
  8
Defpoints
 62
     0
100
AcDbPoint
 10
452.9683424102779
 20
333.5434532750373
 30
0.0
  0
POINT
  5
26B2
330
2683
100
AcDbEntity
  8
Defpoints
 62
     0
100
AcDbPoint
 10
449.6433424102772
 20
352.9434532750374
 30
0.0
  0
POINT
  5
26B3
330
2683
100
AcDbEntity
  8
Defpoints
 62
     0
100
AcDbPoint
 10
438.4617981246113
 20
352.9434532750374
 30
0.0
  0
ENDBLK
  5
268D
330
2683
100
AcDbEntity
  8
0
100
AcDbBlockEnd
  0
BLOCK
  5
2697
330
268E
100
AcDbEntity
  8
0
100
AcDbBlockBegin
  2
*D93
 70
     1
 10
0.0
 20
0.0
 30
0.0
  3
*D93
  1

  0
LINE
  5
26B4
330
268E
100
AcDbEntity
  8
0
 62
     0
370
    -2
100
AcDbLine
 10
572.9144254462519
 20
323.6677461859481
 30
0.0
 11
568.9144254462519
 21
323.6677461859481
 31
0.0
  0
LINE
  5
26B5
330
268E
100
AcDbEntity
  8
0
 62
     0
370
    -2
100
AcDbLine
 10
599.5814197009015
 20
323.6677461859481
 30
0.0
 11
603.5814197009015
 21
323.6677461859481
 31
0.0
  0
SOLID
  5
26B6
330
268E
100
AcDbEntity
  8
0
 62
     0
100
AcDbTrace
 10
572.9144254462519
 20
323.0010795192814
 30
0.0
 11
572.9144254462519
 21
324.3344128526148
 31
0.0
 12
576.9144254462519
 22
323.6677461859481
 32
0.0
 13
576.9144254462519
 23
323.6677461859481
 33
0.0
  0
SOLID
  5
26B7
330
268E
100
AcDbEntity
  8
0
 62
     0
100
AcDbTrace
 10
599.5814197009015
 20
324.3344128526148
 30
0.0
 11
599.5814197009015
 21
323.0010795192814
 31
0.0
 12
595.5814197009015
 22
323.6677461859481
 32
0.0
 13
595.5814197009015
 23
323.6677461859481
 33
0.0
  0
MTEXT
  5
26B8
330
268E
100
AcDbEntity
  8
0
 62
     0
100
AcDbMText
 10
586.748346884254
 20
323.6677461859481
 30
0.0
 40
4.0
 41
0.0
 46
0.0
 71
     5
 72
     1
  1
\A1;19
 73
     1
 44
1.0
1001
ACAD
1000
MTEXTBEGIN
1070
    73
1070
     1
1070
    44
1040
1.0
1070
    74
1070
     0
1000
MTEXTEND
  0
POINT
  5
26B9
330
268E
100
AcDbEntity
  8
Defpoints
 62
     0
100
AcDbPoint
 10
576.9144254462519
 20
350.6749163740837
 30
0.0
  0
POINT
  5
26BA
330
268E
100
AcDbEntity
  8
Defpoints
 62
     0
100
AcDbPoint
 10
595.5814197009015
 20
350.6749163740837
 30
0.0
  0
POINT
  5
26BB
330
268E
100
AcDbEntity
  8
Defpoints
 62
     0
100
AcDbPoint
 10
595.5814197009015
 20
323.6677461859481
 30
0.0
  0
ENDBLK
  5
2698
330
268E
100
AcDbEntity
  8
0
100
AcDbBlockEnd
  0
BLOCK
  5
26A2
330
2699
100
AcDbEntity
  8
0
100
AcDbBlockBegin
  2
*D94
 70
     1
 10
0.0
 20
0.0
 30
0.0
  3
*D94
  1

  0
LINE
  5
26BC
330
2699
100
AcDbEntity
  8
0
 62
     0
370
    -2
100
AcDbLine
 10
562.0035653788147
 20
354.7594400264338
 30
0.0
 11
562.0035653788147
 21
358.7594400264338
 31
0.0
  0
LINE
  5
26BD
330
2699
100
AcDbEntity
  8
0
 62
     0
370
    -2
100
AcDbLine
 10
562.0035653788147
 20
328.887476016334
 30
0.0
 11
562.0035653788147
 21
324.887476016334
 31
0.0
  0
SOLID
  5
26BE
330
2699
100
AcDbEntity
  8
0
 62
     0
100
AcDbTrace
 10
561.3368987121481
 20
354.7594400264338
 30
0.0
 11
562.6702320454813
 21
354.7594400264338
 31
0.0
 12
562.0035653788147
 22
350.7594400264338
 32
0.0
 13
562.0035653788147
 23
350.7594400264338
 33
0.0
  0
SOLID
  5
26BF
330
2699
100
AcDbEntity
  8
0
 62
     0
100
AcDbTrace
 10
562.6702320454813
 20
328.887476016334
 30
0.0
 11
561.3368987121481
 21
328.887476016334
 31
0.0
 12
562.0035653788147
 22
332.887476016334
 32
0.0
 13
562.0035653788147
 23
332.887476016334
 33
0.0
  0
MTEXT
  5
26C0
330
2699
100
AcDbEntity
  8
0
 62
     0
100
AcDbMText
 10
562.0035653788147
 20
340.7475495696044
 30
0.0
 40
4.0
 41
0.0
 46
0.0
 71
     5
 72
     1
  1
\A1;18
 73
     1
 44
1.0
1001
ACAD
1000
MTEXTBEGIN
1070
    73
1070
     1
1070
    44
1040
1.0
1070
    74
1070
     0
1000
MTEXTEND
  0
POINT
  5
26C1
330
2699
100
AcDbEntity
  8
Defpoints
 62
     0
100
AcDbPoint
 10
577.0956870036518
 20
350.7594400264338
 30
0.0
  0
POINT
  5
26C2
330
2699
100
AcDbEntity
  8
Defpoints
 62
     0
100
AcDbPoint
 10
582.7479225736007
 20
332.887476016334
 30
0.0
  0
POINT
  5
26C3
330
2699
100
AcDbEntity
  8
Defpoints
 62
     0
100
AcDbPoint
 10
562.0035653788147
 20
332.887476016334
 30
0.0
  0
ENDBLK
  5
26A3
330
2699
100
AcDbEntity
  8
0
100
AcDbBlockEnd
  0
BLOCK
  5
26D1
330
26C7
100
AcDbEntity
  8
0
100
AcDbBlockBegin
  2
*D95
 70
     1
 10
0.0
 20
0.0
 30
0.0
  3
*D95
  1

  0
LINE
  5
2706
330
26C7
100
AcDbEntity
  8
0
 62
     0
370
    -2
100
AcDbLine
 10
442.4733250792185
 20
331.5434532750373
 30
0.0
 11
442.4733250792185
 21
327.7104933206276
 31
0.0
  0
LINE
  5
2707
330
26C7
100
AcDbEntity
  8
0
 62
     0
370
    -2
100
AcDbLine
 10
461.2733250792187
 20
331.5434532750373
 30
0.0
 11
461.2733250792187
 21
327.7104933206276
 31
0.0
  0
LINE
  5
2708
330
26C7
100
AcDbEntity
  8
0
 62
     0
370
    -2
100
AcDbLine
 10
444.9733250792185
 20
328.9604933206276
 30
0.0
 11
458.7733250792187
 21
328.9604933206276
 31
0.0
  0
SOLID
  5
2709
330
26C7
100
AcDbEntity
  8
0
 62
     0
100
AcDbTrace
 10
444.9733250792185
 20
329.3771599872943
 30
0.0
 11
444.9733250792185
 21
328.543826653961
 31
0.0
 12
442.4733250792185
 22
328.9604933206276
 32
0.0
 13
442.4733250792185
 23
328.9604933206276
 33
0.0
  0
SOLID
  5
270A
330
26C7
100
AcDbEntity
  8
0
 62
     0
100
AcDbTrace
 10
458.7733250792187
 20
328.543826653961
 30
0.0
 11
458.7733250792187
 21
329.3771599872943
 31
0.0
 12
461.2733250792187
 22
328.9604933206276
 32
0.0
 13
461.2733250792187
 23
328.9604933206276
 33
0.0
  0
MTEXT
  5
270B
330
26C7
100
AcDbEntity
  8
0
 62
     0
100
AcDbMText
 10
451.8733250792186
 20
330.0854933206276
 30
0.0
 40
1.0
 41
0.0
 46
0.0
 71
     5
 72
     1
  1
19
 73
     1
 44
1.0
1001
ACAD
1000
MTEXTBEGIN
1070
    73
1070
     1
1070
    44
1040
1.0
1070
    74
1070
     0
1000
MTEXTEND
  0
POINT
  5
270C
330
26C7
100
AcDbEntity
  8
Defpoints
 62
     0
100
AcDbPoint
 10
442.4733250792185
 20
334.5434532750374
 30
0.0
  0
POINT
  5
270D
330
26C7
100
AcDbEntity
  8
Defpoints
 62
     0
100
AcDbPoint
 10
461.2733250792187
 20
334.5434532750374
 30
0.0
  0
POINT
  5
270E
330
26C7
100
AcDbEntity
  8
Defpoints
 62
     0
100
AcDbPoint
 10
461.2733250792187
 20
328.9604933206276
 30
0.0
  0
ENDBLK
  5
26D2
330
26C7
100
AcDbEntity
  8
0
100
AcDbBlockEnd
  0
BLOCK
  5
26F2
330
26E8
100
AcDbEntity
  8
0
100
AcDbBlockBegin
  2
*D96
 70
     1
 10
0.0
 20
0.0
 30
0.0
  3
*D96
  1

  0
LINE
  5
270F
330
26E8
100
AcDbEntity
  8
0
 62
     0
370
    -2
100
AcDbLine
 10
440.4733250792185
 20
333.5434532750373
 30
0.0
 11
436.075736080385
 21
333.5434532750373
 31
0.0
  0
LINE
  5
2710
330
26E8
100
AcDbEntity
  8
0
 62
     0
370
    -2
100
AcDbLine
 10
440.5178292660191
 20
352.9384388574376
 30
0.0
 11
436.075736080385
 21
352.9384388574376
 31
0.0
  0
LINE
  5
2711
330
26E8
100
AcDbEntity
  8
0
 62
     0
370
    -2
100
AcDbLine
 10
437.325736080385
 20
336.0434532750373
 30
0.0
 11
437.325736080385
 21
350.4384388574376
 31
0.0
  0
SOLID
  5
2712
330
26E8
100
AcDbEntity
  8
0
 62
     0
100
AcDbTrace
 10
436.9090694137183
 20
336.0434532750373
 30
0.0
 11
437.7424027470516
 21
336.0434532750373
 31
0.0
 12
437.325736080385
 22
333.5434532750373
 32
0.0
 13
437.325736080385
 23
333.5434532750373
 33
0.0
  0
SOLID
  5
2713
330
26E8
100
AcDbEntity
  8
0
 62
     0
100
AcDbTrace
 10
437.7424027470516
 20
350.4384388574376
 30
0.0
 11
436.9090694137183
 21
350.4384388574376
 31
0.0
 12
437.325736080385
 22
352.9384388574376
 32
0.0
 13
437.325736080385
 23
352.9384388574376
 33
0.0
  0
MTEXT
  5
2714
330
26E8
100
AcDbEntity
  8
0
 62
     0
100
AcDbMText
 10
436.200736080385
 20
343.2409460662375
 30
0.0
 40
1.0
 41
0.0
 46
0.0
 71
     5
 72
     1
  1
19.5
 11
0.0
 21
1.0
 31
0.0
 73
     1
 44
1.0
1001
ACAD
1000
MTEXTBEGIN
1070
    73
1070
     1
1070
    44
1040
1.0
1070
    74
1070
     0
1000
MTEXTEND
  0
POINT
  5
2715
330
26E8
100
AcDbEntity
  8
Defpoints
 62
     0
100
AcDbPoint
 10
443.4733250792184
 20
333.5434532750373
 30
0.0
  0
POINT
  5
2716
330
26E8
100
AcDbEntity
  8
Defpoints
 62
     0
100
AcDbPoint
 10
443.5178292660191
 20
352.9384388574376
 30
0.0
  0
POINT
  5
2717
330
26E8
100
AcDbEntity
  8
Defpoints
 62
     0
100
AcDbPoint
 10
437.325736080385
 20
352.9384388574376
 30
0.0
  0
ENDBLK
  5
26F3
330
26E8
100
AcDbEntity
  8
0
100
AcDbBlockEnd
  0
BLOCK
  5
2725
330
271B
100
AcDbEntity
  8
0
100
AcDbBlockBegin
  2
*D97
 70
     1
 10
0.0
 20
0.0
 30
0.0
  3
*D97
  1

  0
LINE
  5
2754
330
271B
100
AcDbEntity
  8
0
 62
     0
370
    -2
100
AcDbLine
 10
495.4451414003542
 20
328.5952001894997
 30
0.0
 11
495.4451414003542
 21
328.6606763799759
 31
0.0
  0
LINE
  5
2755
330
271B
100
AcDbEntity
  8
0
 62
     0
370
    -2
100
AcDbLine
 10
514.1121356550038
 20
328.5952001894997
 30
0.0
 11
514.1121356550038
 21
328.6606763799759
 31
0.0
  0
LINE
  5
2756
330
271B
100
AcDbEntity
  8
0
 62
     0
370
    -2
100
AcDbLine
 10
497.9451414003542
 20
327.410676379976
 30
0.0
 11
511.6121356550038
 21
327.410676379976
 31
0.0
  0
SOLID
  5
2757
330
271B
100
AcDbEntity
  8
0
 62
     0
100
AcDbTrace
 10
497.9451414003542
 20
327.8273430466426
 30
0.0
 11
497.9451414003542
 21
326.9940097133093
 31
0.0
 12
495.4451414003542
 22
327.410676379976
 32
0.0
 13
495.4451414003542
 23
327.410676379976
 33
0.0
  0
SOLID
  5
2758
330
271B
100
AcDbEntity
  8
0
 62
     0
100
AcDbTrace
 10
511.6121356550038
 20
326.9940097133093
 30
0.0
 11
511.6121356550038
 21
327.8273430466426
 31
0.0
 12
514.1121356550038
 22
327.410676379976
 32
0.0
 13
514.1121356550038
 23
327.410676379976
 33
0.0
  0
MTEXT
  5
2759
330
271B
100
AcDbEntity
  8
0
 62
     0
100
AcDbMText
 10
504.778638527679
 20
328.535676379976
 30
0.0
 40
1.0
 41
0.0
 46
0.0
 71
     5
 72
     1
  1
19
 73
     1
 44
1.0
1001
ACAD
1000
MTEXTBEGIN
1070
    73
1070
     1
1070
    44
1040
1.0
1070
    74
1070
     0
1000
MTEXTEND
  0
POINT
  5
275A
330
271B
100
AcDbEntity
  8
Defpoints
 62
     0
100
AcDbPoint
 10
495.4451414003542
 20
325.5952001894997
 30
0.0
  0
POINT
  5
275B
330
271B
100
AcDbEntity
  8
Defpoints
 62
     0
100
AcDbPoint
 10
514.1121356550038
 20
325.5952001894997
 30
0.0
  0
POINT
  5
275C
330
271B
100
AcDbEntity
  8
Defpoints
 62
     0
100
AcDbPoint
 10
514.1121356550038
 20
327.410676379976
 30
0.0
  0
ENDBLK
  5
2726
330
271B
100
AcDbEntity
  8
0
100
AcDbBlockEnd
  0
BLOCK
  5
276A
330
2760
100
AcDbEntity
  8
0
100
AcDbBlockBegin
  2
*D98
 70
     1
 10
0.0
 20
0.0
 30
0.0
  3
*D98
  1

  0
LINE
  5
27A2
330
2760
100
AcDbEntity
  8
0
 62
     0
370
    -2
100
AcDbLine
 10
486.0359476261729
 20
332.8874760163338
 30
0.0
 11
485.9704714356967
 21
332.8874760163338
 31
0.0
  0
LINE
  5
27A3
330
2760
100
AcDbEntity
  8
0
 62
     0
370
    -2
100
AcDbLine
 10
486.0359476261729
 20
350.7594400264338
 30
0.0
 11
485.9704714356967
 21
350.7594400264338
 31
0.0
  0
LINE
  5
27A4
330
2760
100
AcDbEntity
  8
0
 62
     0
370
    -2
100
AcDbLine
 10
487.2204714356967
 20
335.3874760163338
 30
0.0
 11
487.2204714356967
 21
348.2594400264338
 31
0.0
  0
SOLID
  5
27A5
330
2760
100
AcDbEntity
  8
0
 62
     0
100
AcDbTrace
 10
486.80380476903
 20
335.3874760163338
 30
0.0
 11
487.6371381023633
 21
335.3874760163338
 31
0.0
 12
487.2204714356967
 22
332.8874760163338
 32
0.0
 13
487.2204714356967
 23
332.8874760163338
 33
0.0
  0
SOLID
  5
27A6
330
2760
100
AcDbEntity
  8
0
 62
     0
100
AcDbTrace
 10
487.6371381023633
 20
348.2594400264338
 30
0.0
 11
486.80380476903
 21
348.2594400264338
 31
0.0
 12
487.2204714356967
 22
350.7594400264338
 32
0.0
 13
487.2204714356967
 23
350.7594400264338
 33
0.0
  0
MTEXT
  5
27A7
330
2760
100
AcDbEntity
  8
0
 62
     0
100
AcDbMText
 10
486.0954714356966
 20
341.8234580213838
 30
0.0
 40
1.0
 41
0.0
 46
0.0
 71
     5
 72
     1
  1
18
 11
0.0
 21
1.0
 31
0.0
 73
     1
 44
1.0
1001
ACAD
1000
MTEXTBEGIN
1070
    73
1070
     1
1070
    44
1040
1.0
1070
    74
1070
     0
1000
MTEXTEND
  0
POINT
  5
27A8
330
2760
100
AcDbEntity
  8
Defpoints
 62
     0
100
AcDbPoint
 10
489.0359476261728
 20
332.8874760163338
 30
0.0
  0
POINT
  5
27A9
330
2760
100
AcDbEntity
  8
Defpoints
 62
     0
100
AcDbPoint
 10
489.0359476261728
 20
350.7594400264338
 30
0.0
  0
POINT
  5
27AA
330
2760
100
AcDbEntity
  8
Defpoints
 62
     0
100
AcDbPoint
 10
487.2204714356967
 20
350.7594400264338
 30
0.0
  0
ENDBLK
  5
276B
330
2760
100
AcDbEntity
  8
0
100
AcDbBlockEnd
  0
ENDSEC
  0
SECTION
  2
ENTITIES
  0
HATCH
  5
9EA
330
1F
100
AcDbEntity
  8
0
100
AcDbHatch
 10
0.0
 20
0.0
 30
0.0
210
0.0
220
0.0
230
1.0
  2
ANSI31
 70
     0
 71
     1
 91
        0
 75
     0
 76
     1
 52
45.0
 41
0.1
 77
     0
 78
     1
 53
90.0
 43
0.0
 44
0.0
 45
-0.3175
 46
0.0
 79
     0
 98
        1
 10
0.0
 20
0.0
  0
LINE
  5
245F
330
1F
100
AcDbEntity
  8
0
100
AcDbLine
 10
381.3793544954819
 20
352.5410769582433
 30
0.0
 11
396.3793544954809
 21
352.5410769582433
 31
0.0
  0
ARC
  5
2460
330
1F
100
AcDbEntity
  8
0
100
AcDbCircle
 10
381.3793544954819
 20
352.0410769582433
 30
0.0
 40
0.5
100
AcDbArc
 50
90.0
 51
180.0
  0
LINE
  5
2461
330
1F
100
AcDbEntity
  8
0
100
AcDbLine
 10
380.8793544954818
 20
352.0410769582433
 30
0.0
 11
380.8793544954818
 21
341.0410769582431
 31
0.0
  0
ARC
  5
2462
330
1F
100
AcDbEntity
  8
0
100
AcDbCircle
 10
381.0793544954817
 20
341.0410769582431
 30
0.0
 40
0.1999999999999318
100
AcDbArc
 50
179.9999999999837
 51
269.9999999999968
  0
LINE
  5
2463
330
1F
100
AcDbEntity
  8
0
100
AcDbLine
 10
381.4793544954813
 20
340.8410769582431
 30
0.0
 11
381.0793544954817
 21
340.8410769582431
 31
0.0
  0
ARC
  5
2464
330
1F
100
AcDbEntity
  8
0
100
AcDbCircle
 10
381.4793544954813
 20
340.6410769582432
 30
0.0
 40
0.2000000000000455
100
AcDbArc
 50
0.0
 51
90.0
  0
LINE
  5
2465
330
1F
100
AcDbEntity
  8
0
100
AcDbLine
 10
381.679354495482
 20
340.6410769582432
 30
0.0
 11
381.679354495482
 21
339.3410769582433
 31
0.0
  0
ARC
  5
2466
330
1F
100
AcDbEntity
  8
0
100
AcDbCircle
 10
381.4793544954813
 20
339.3410769582433
 30
0.0
 40
0.1999999999999886
100
AcDbArc
 50
270.0
 51
0.0
  0
LINE
  5
2467
330
1F
100
AcDbEntity
  8
0
100
AcDbLine
 10
381.0793544954817
 20
339.1410769582432
 30
0.0
 11
381.4793544954813
 21
339.1410769582432
 31
0.0
  0
ARC
  5
2468
330
1F
100
AcDbEntity
  8
0
100
AcDbCircle
 10
381.0793544954817
 20
338.9410769582432
 30
0.0
 40
0.1999999999999886
100
AcDbArc
 50
90.0
 51
180.0
  0
LINE
  5
2469
330
1F
100
AcDbEntity
  8
0
100
AcDbLine
 10
380.8793544954818
 20
338.9410769582432
 30
0.0
 11
380.8793544954818
 21
337.0410769582433
 31
0.0
  0
ARC
  5
246A
330
1F
100
AcDbEntity
  8
0
100
AcDbCircle
 10
381.3793544954819
 20
337.0410769582433
 30
0.0
 40
0.5
100
AcDbArc
 50
180.0
 51
270.0
  0
LINE
  5
246B
330
1F
100
AcDbEntity
  8
0
100
AcDbLine
 10
381.3793544954819
 20
336.5410769582433
 30
0.0
 11
386.3793544954818
 21
336.5410769582433
 31
0.0
  0
LINE
  5
246C
330
1F
100
AcDbEntity
  8
0
100
AcDbLine
 10
391.3793544954818
 20
336.5410769582433
 30
0.0
 11
396.3793544954818
 21
336.5410769582433
 31
0.0
  0
LINE
  5
246D
330
1F
100
AcDbEntity
  8
0
100
AcDbLine
 10
386.3793544954818
 20
336.5410769582433
 30
0.0
 11
391.3793544954818
 21
336.5410769582433
 31
0.0
  0
ARC
  5
246E
330
1F
100
AcDbEntity
  8
0
100
AcDbCircle
 10
396.3793544954818
 20
337.0410769582433
 30
0.0
 40
0.5
100
AcDbArc
 50
270.0
 51
0.0
  0
LINE
  5
246F
330
1F
100
AcDbEntity
  8
0
100
AcDbLine
 10
396.8793544954818
 20
337.0410769582433
 30
0.0
 11
396.8793544954818
 21
338.9410769582432
 31
0.0
  0
ARC
  5
2470
330
1F
100
AcDbEntity
  8
0
100
AcDbCircle
 10
396.679354495482
 20
338.9410769582432
 30
0.0
 40
0.1999999999999886
100
AcDbArc
 50
359.9999999999837
 51
89.99999999999674
  0
LINE
  5
2471
330
1F
100
AcDbEntity
  8
0
100
AcDbLine
 10
396.679354495482
 20
339.1410769582432
 30
0.0
 11
396.2793544954824
 21
339.1410769582432
 31
0.0
  0
ARC
  5
2472
330
1F
100
AcDbEntity
  8
0
100
AcDbCircle
 10
396.2793544954824
 20
339.3410769582433
 30
0.0
 40
0.1999999999999886
100
AcDbArc
 50
180.0
 51
270.0
  0
LINE
  5
2473
330
1F
100
AcDbEntity
  8
0
100
AcDbLine
 10
396.0793544954817
 20
340.6410769582432
 30
0.0
 11
396.0793544954817
 21
339.3410769582433
 31
0.0
  0
ARC
  5
2474
330
1F
100
AcDbEntity
  8
0
100
AcDbCircle
 10
396.2793544954824
 20
340.6410769582432
 30
0.0
 40
0.1999999999999886
100
AcDbArc
 50
90.0
 51
180.0
  0
LINE
  5
2475
330
1F
100
AcDbEntity
  8
0
100
AcDbLine
 10
396.2793544954824
 20
340.8410769582431
 30
0.0
 11
396.679354495482
 21
340.8410769582431
 31
0.0
  0
ARC
  5
2476
330
1F
100
AcDbEntity
  8
0
100
AcDbCircle
 10
396.679354495482
 20
341.0410769582431
 30
0.0
 40
0.1999999999999886
100
AcDbArc
 50
270.0
 51
0.0
  0
LINE
  5
2477
330
1F
100
AcDbEntity
  8
0
100
AcDbLine
 10
396.8793544954818
 20
341.0410769582431
 30
0.0
 11
396.8793544954818
 21
352.0410769582433
 31
0.0
  0
ARC
  5
2478
330
1F
100
AcDbEntity
  8
0
100
AcDbCircle
 10
396.3793544954809
 20
352.0410769582433
 30
0.0
 40
0.5
100
AcDbArc
 50
0.0
 51
90.0
  0
LINE
  5
2479
330
1F
100
AcDbEntity
  8
0
100
AcDbLine
 10
397.4793544954819
 20
339.5410769582433
 30
0.0
 11
400.8793544954813
 21
339.5410769582433
 31
0.0
  0
LINE
  5
247A
330
1F
100
AcDbEntity
  8
0
100
AcDbLine
 10
397.4793544954819
 20
349.5410769582433
 30
0.0
 11
400.8793544954813
 21
349.5410769582433
 31
0.0
  0
LINE
  5
247B
330
1F
100
AcDbEntity
  8
0
100
AcDbLine
 10
405.8793544954814
 20
350.0410769582433
 30
0.0
 11
406.8793544954814
 21
350.0410769582433
 31
0.0
  0
LINE
  5
247C
330
1F
100
AcDbEntity
  8
0
100
AcDbLine
 10
405.8793544954814
 20
339.0410769582433
 30
0.0
 11
406.8793544954814
 21
339.0410769582433
 31
0.0
  0
LINE
  5
247D
330
1F
100
AcDbEntity
  8
0
100
AcDbLine
 10
396.8793544954818
 20
341.0410769582431
 30
0.0
 11
396.8793544954818
 21
352.0410769582433
 31
0.0
  0
ARC
  5
247E
330
1F
100
AcDbEntity
  8
0
100
AcDbCircle
 10
397.4793544954819
 20
350.1410769582433
 30
0.0
 40
0.6000000000000228
100
AcDbArc
 50
180.0
 51
270.0
  0
ARC
  5
247F
330
1F
100
AcDbEntity
  8
0
100
AcDbCircle
 10
397.4793544954819
 20
338.9410769582432
 30
0.0
 40
0.5999999999999944
100
AcDbArc
 50
90.0
 51
180.0
  0
DIMENSION
  5
2480
330
1F
100
AcDbEntity
  8
0
100
AcDbDimension
280
     0
  2
*D83
 10
377.3491488068985
 20
336.5410769582433
 30
0.0
 11
376.2241488068985
 21
344.5410769582433
 31
0.0
 70
    32
  1
<>mm
 71
    85
 72
    85
 41
0.0
 42
16.0
 73
     0
 74
     0
 75
     0
  3
ISO-25
100
AcDbAlignedDimension
 13
381.3793544954819
 23
352.5410769582433
 33
0.0
 14
381.3793544954819
 24
336.5410769582433
 34
0.0
 50
90.0
100
AcDbRotatedDimension
  0
DIMENSION
  5
2481
330
1F
100
AcDbEntity
  8
0
100
AcDbDimension
280
     0
  2
*D84
 10
396.8793544954818
 20
333.1060566493369
 30
0.0
 11
388.8793544954818
 21
334.2310566493369
 31
0.0
 70
    32
  1
<>mm
 71
     0
 72
     0
 41
256.9167031796228
 42
16.0
 73
     0
 74
     0
 75
     0
  3
ISO-25
100
AcDbAlignedDimension
 13
380.8793544954818
 23
337.0410769582433
 33
0.0
 14
396.8793544954818
 24
337.0410769582433
 34
0.0
 50
0.0
100
AcDbRotatedDimension
  0
LINE
  5
2482
330
1F
100
AcDbEntity
  8
0
100
AcDbLine
 10
400.8793544954813
 20
350.0410769582433
 30
0.0
 11
406.8793544954814
 21
350.0410769582433
 31
0.0
  0
LINE
  5
2483
330
1F
100
AcDbEntity
  8
0
100
AcDbLine
 10
406.8793544954814
 20
349.5410769582433
 30
0.0
 11
406.8793544954814
 21
339.5410769582433
 31
0.0
  0
LINE
  5
2484
330
1F
100
AcDbEntity
  8
0
100
AcDbLine
 10
400.8793544954813
 20
339.0410769582433
 30
0.0
 11
406.8793544954814
 21
339.0410769582433
 31
0.0
  0
LINE
  5
2485
330
1F
100
AcDbEntity
  8
0
100
AcDbLine
 10
400.8793544954813
 20
349.5410769582433
 30
0.0
 11
400.8793544954813
 21
339.5410769582433
 31
0.0
  0
LINE
  5
2486
330
1F
100
AcDbEntity
  8
0
100
AcDbLine
 10
400.8793544954813
 20
349.5410769582433
 30
0.0
 11
400.8793544954813
 21
350.0410769582433
 31
0.0
  0
LINE
  5
2487
330
1F
100
AcDbEntity
  8
0
100
AcDbLine
 10
406.8793544954814
 20
349.5410769582433
 30
0.0
 11
406.8793544954814
 21
350.0410769582433
 31
0.0
  0
LINE
  5
2488
330
1F
100
AcDbEntity
  8
0
100
AcDbLine
 10
406.8793544954814
 20
339.5410769582433
 30
0.0
 11
406.8793544954814
 21
339.0410769582433
 31
0.0
  0
LINE
  5
2489
330
1F
100
AcDbEntity
  8
0
100
AcDbLine
 10
400.8793544954813
 20
339.5410769582433
 30
0.0
 11
400.8793544954813
 21
339.0410769582433
 31
0.0
  0
MTEXT
  5
24DA
330
1F
100
AcDbEntity
  8
0
100
AcDbMText
 10
376.9662838403634
 20
322.9267608762664
 30
0.0
 40
2.5
 41
59.44011751511346
 46
0.0
 71
     1
 72
     1
  1
{\fArial|b0|i0|c0|p32;   16*16\fSimSun|b0|i0|c134|p0;截面图}
  7
T1
 73
     1
 44
1.0
1001
ACAD
1000
MTEXTBEGIN
1070
    73
1070
     1
1070
    44
1040
1.0
1070
    74
1070
     0
1000
MTEXTEND
  0
LINE
  5
25D2
330
1F
100
AcDbEntity
  8
0
  6
Continuous
347
237B
 62
     7
100
AcDbLine
 10
460.0733250792188
 20
352.7434532750376
 30
0.0
 11
460.0733250792188
 21
342.4543822268374
 31
0.0
  0
LWPOLYLINE
  5
25D3
330
1F
100
AcDbEntity
  8
0
  6
Continuous
347
237B
 62
     7
100
AcDbPolyline
 90
        8
 70
     0
 43
0.0
 10
460.0733250792188
 20
352.7434532750376
 10
460.0783394968191
 20
352.7879574618373
 10
460.0931313057187
 20
352.8302300228375
 10
460.1169587827187
 20
352.8681512353373
 10
460.1486271189185
 20
352.8998195715376
 10
460.1865483314193
 20
352.9236470486376
 10
460.2288208924189
 20
352.9384388574376
 10
460.2733250792186
 20
352.9434532750374
  0
LINE
  5
25D4
330
1F
100
AcDbEntity
  8
0
  6
Continuous
347
237B
 62
     7
100
AcDbLine
 10
460.5257119583191
 20
352.9434532750374
 30
0.0
 11
460.2733250792186
 21
352.9434532750374
 31
0.0
  0
LWPOLYLINE
  5
25D5
330
1F
100
AcDbEntity
  8
0
  6
Continuous
347
237B
 62
     7
100
AcDbPolyline
 90
        7
 70
     0
 43
0.0
 10
460.5257119583191
 20
352.9434532750374
 10
460.567947761219
 20
352.9389427554374
 10
460.6082785100186
 20
352.9256146445373
 10
460.6448850783188
 20
352.9040701093377
 10
460.6761163197186
 20
352.8752809203374
 10
460.7005635428192
 20
352.8405456196374
 10
460.7171240510186
 20
352.8014309496375
  0
LWPOLYLINE
  5
25D6
330
1F
100
AcDbEntity
  8
0
  6
Continuous
347
237B
 62
     7
100
AcDbPolyline
 90
        8
 70
     0
 43
0.0
 10
460.7171240510186
 20
352.8014309496375
 10
460.8333715552187
 20
352.3967913738375
 10
460.9373556546186
 20
351.9909374816375
 10
461.0290763492192
 20
351.5838692730377
 10
461.1085336389185
 20
351.1755867481375
 10
461.1757275239185
 20
350.7660899068373
 10
461.2306580040192
 20
350.3553787491374
 10
461.2733250792187
 20
349.9434532750374
  0
LINE
  5
25D7
330
1F
100
AcDbEntity
  8
0
  6
Continuous
347
237B
 62
     7
100
AcDbLine
 10
461.2733250792187
 20
334.5434532750374
 30
0.0
 11
461.2733250792187
 21
349.9434532750374
 31
0.0
  0
LWPOLYLINE
  5
25D8
330
1F
100
AcDbEntity
  8
0
  6
Continuous
347
237B
 62
     7
100
AcDbPolyline
 90
       15
 70
     0
 43
0.0
 10
461.2733250792187
 20
334.5434532750374
 10
461.2670372891186
 20
334.4314887989376
 10
461.2482529914184
 20
334.3209323410374
 10
461.2172084095188
 20
334.2131742130377
 10
461.1742939471184
 20
334.1095695359377
 10
461.1200492785189
 20
334.0114211985374
 10
461.0551565617186
 20
333.9199634731376
 10
460.9804318604189
 20
333.8363464938375
 10
460.8968148811189
 20
333.7616217925374
 10
460.8053571558191
 20
333.6967290757375
 10
460.7072088184192
 20
333.6424844071375
 10
460.6036041412187
 20
333.5995699447376
 10
460.495846013219
 20
333.5685253628376
 10
460.3852895553188
 20
333.5497410651374
 10
460.2733250792186
 20
333.5434532750373
  0
LINE
  5
25D9
330
1F
100
AcDbEntity
  8
0
  6
Continuous
347
237B
 62
     7
100
AcDbLine
 10
453.623325079219
 20
333.5434532750373
 30
0.0
 11
460.2733250792186
 21
333.5434532750373
 31
0.0
  0
LINE
  5
25DA
330
1F
100
AcDbEntity
  8
0
  6
Continuous
347
237B
 62
     7
100
AcDbLine
 10
453.623325079219
 20
333.7434532750376
 30
0.0
 11
453.623325079219
 21
333.5434532750373
 31
0.0
  0
LINE
  5
25DB
330
1F
100
AcDbEntity
  8
0
  6
Continuous
347
237B
 62
     7
100
AcDbLine
 10
453.623325079219
 20
333.7434532750376
 30
0.0
 11
454.623325079219
 21
334.7434532750376
 31
0.0
  0
LINE
  5
25DC
330
1F
100
AcDbEntity
  8
0
  6
Continuous
347
237B
 62
     7
100
AcDbLine
 10
459.0733250792188
 20
334.7434532750376
 30
0.0
 11
454.623325079219
 21
334.7434532750376
 31
0.0
  0
LWPOLYLINE
  5
25DD
330
1F
100
AcDbEntity
  8
0
  6
Continuous
347
237B
 62
     7
100
AcDbPolyline
 90
       15
 70
     0
 43
0.0
 10
459.0733250792188
 20
334.7434532750376
 10
459.185289555319
 20
334.7497410651377
 10
459.2958460132193
 20
334.7685253628374
 10
459.4036041412189
 20
334.7995699447374
 10
459.5072088184186
 20
334.8424844071374
 10
459.6053571558193
 20
334.8967290757373
 10
459.696814881119
 20
334.9616217925377
 10
459.7804318604191
 20
335.0363464938378
 10
459.8551565617188
 20
335.1199634731374
 10
459.9200492785191
 20
335.2114211985377
 10
459.9742939471187
 20
335.3095695359375
 10
460.017208409519
 20
335.4131742130376
 10
460.0482529914186
 20
335.5209323410377
 10
460.0670372891188
 20
335.6314887989374
 10
460.0733250792188
 20
335.7434532750376
  0
LINE
  5
25DE
330
1F
100
AcDbEntity
  8
0
  6
Continuous
347
237B
 62
     7
100
AcDbLine
 10
460.0733250792188
 20
336.5434532750374
 30
0.0
 11
460.0733250792188
 21
335.7434532750376
 31
0.0
  0
LWPOLYLINE
  5
25DF
330
1F
100
AcDbEntity
  8
0
  6
Continuous
347
237B
 62
     7
100
AcDbPolyline
 90
        8
 70
     0
 43
0.0
 10
460.0733250792188
 20
336.5434532750374
 10
460.0683106617187
 20
336.5879574618375
 10
460.053518852819
 20
336.6302300228376
 10
460.029691375719
 20
336.6681512353375
 10
459.9980230396193
 20
336.6998195715373
 10
459.9601018271185
 20
336.7236470486373
 10
459.9178292660187
 20
336.7384388574373
 10
459.873325079219
 20
336.7434532750376
  0
LINE
  5
25E0
330
1F
100
AcDbEntity
  8
0
  6
Continuous
347
237B
 62
     7
100
AcDbLine
 10
457.2733250792187
 20
336.7434532750376
 30
0.0
 11
459.873325079219
 21
336.7434532750376
 31
0.0
  0
LWPOLYLINE
  5
25E1
330
1F
100
AcDbEntity
  8
0
  6
Continuous
347
237B
 62
     7
100
AcDbPolyline
 90
        8
 70
     0
 43
0.0
 10
457.2733250792187
 20
336.7434532750376
 10
457.228820892419
 20
336.7484676925374
 10
457.1865483314192
 20
336.7632595014375
 10
457.1486271189185
 20
336.7870869785374
 10
457.1169587827187
 20
336.8187553146376
 10
457.0931313057188
 20
336.8566765272376
 10
457.0783394968191
 20
336.8989490882377
 10
457.0733250792188
 20
336.9434532750374
  0
LINE
  5
25E2
330
1F
100
AcDbEntity
  8
0
  6
Continuous
347
237B
 62
     7
100
AcDbLine
 10
457.0733250792188
 20
337.7434532750376
 30
0.0
 11
457.0733250792188
 21
336.9434532750374
 31
0.0
  0
LWPOLYLINE
  5
25E3
330
1F
100
AcDbEntity
  8
0
  6
Continuous
347
237B
 62
     7
100
AcDbPolyline
 90
        8
 70
     0
 43
0.0
 10
457.0733250792188
 20
337.7434532750376
 10
457.0783394968191
 20
337.7879574618373
 10
457.0931313057188
 20
337.8302300228374
 10
457.1169587827187
 20
337.8681512353373
 10
457.1486271189185
 20
337.8998195715376
 10
457.1865483314192
 20
337.9236470486376
 10
457.228820892419
 20
337.9384388574376
 10
457.2733250792187
 20
337.9434532750374
  0
LINE
  5
25E4
330
1F
100
AcDbEntity
  8
0
  6
Continuous
347
237B
 62
     7
100
AcDbLine
 10
459.873325079219
 20
337.9434532750374
 30
0.0
 11
457.2733250792187
 21
337.9434532750374
 31
0.0
  0
LWPOLYLINE
  5
25E5
330
1F
100
AcDbEntity
  8
0
  6
Continuous
347
237B
 62
     7
100
AcDbPolyline
 90
        8
 70
     0
 43
0.0
 10
459.873325079219
 20
337.9434532750374
 10
459.9178292660187
 20
337.9484676925376
 10
459.9601018271185
 20
337.9632595014377
 10
459.9980230396193
 20
337.9870869785377
 10
460.029691375719
 20
338.0187553146375
 10
460.053518852819
 20
338.0566765272374
 10
460.0683106617187
 20
338.0989490882375
 10
460.0733250792188
 20
338.1434532750377
  0
LINE
  5
25E6
330
1F
100
AcDbEntity
  8
0
  6
Continuous
347
237B
 62
     7
100
AcDbLine
 10
460.0733250792188
 20
340.4434532750374
 30
0.0
 11
460.0733250792188
 21
338.1434532750377
 31
0.0
  0
LWPOLYLINE
  5
25E7
330
1F
100
AcDbEntity
  8
0
  6
Continuous
347
237B
 62
     7
100
AcDbPolyline
 90
        8
 70
     0
 43
0.0
 10
460.0733250792188
 20
340.4434532750374
 10
460.0683106617187
 20
340.4879574618376
 10
460.053518852819
 20
340.5302300228377
 10
460.029691375719
 20
340.5681512353376
 10
459.9980230396193
 20
340.5998195715374
 10
459.9601018271185
 20
340.6236470486374
 10
459.9178292660187
 20
340.6384388574374
 10
459.873325079219
 20
340.6434532750377
  0
LINE
  5
25E8
330
1F
100
AcDbEntity
  8
0
  6
Continuous
347
237B
 62
     7
100
AcDbLine
 10
459.1733250792192
 20
340.6434532750377
 30
0.0
 11
459.873325079219
 21
340.6434532750377
 31
0.0
  0
LWPOLYLINE
  5
25E9
330
1F
100
AcDbEntity
  8
0
  6
Continuous
347
237B
 62
     7
100
AcDbPolyline
 90
        8
 70
     0
 43
0.0
 10
459.1733250792192
 20
340.6434532750377
 10
459.1288208925186
 20
340.6484676925375
 10
459.0865483314189
 20
340.6632595014376
 10
459.048627118919
 20
340.6870869785375
 10
459.0169587827192
 20
340.7187553146373
 10
458.9931313057193
 20
340.7566765272377
 10
458.9783394968187
 20
340.7989490882374
 10
458.9733250792185
 20
340.8434532750375
  0
LINE
  5
25EA
330
1F
100
AcDbEntity
  8
0
  6
Continuous
347
237B
 62
     7
100
AcDbLine
 10
458.9733250792185
 20
341.1434532750377
 30
0.0
 11
458.9733250792185
 21
340.8434532750375
 31
0.0
  0
LINE
  5
25EB
330
1F
100
AcDbEntity
  8
0
  6
Continuous
347
237B
 62
     7
100
AcDbLine
 10
460.0733250792188
 20
342.4543822268374
 30
0.0
 11
458.9733250792185
 21
341.1434532750377
 31
0.0
  0
LINE
  5
25EC
330
1F
100
AcDbEntity
  8
0
  6
Continuous
347
237B
 62
     7
100
AcDbLine
 10
449.123325079219
 20
334.7434532750376
 30
0.0
 11
444.6733250792192
 21
334.7434532750376
 31
0.0
  0
LINE
  5
25ED
330
1F
100
AcDbEntity
  8
0
  6
Continuous
347
237B
 62
     7
100
AcDbLine
 10
450.123325079219
 20
333.7434532750376
 30
0.0
 11
449.123325079219
 21
334.7434532750376
 31
0.0
  0
LINE
  5
25EE
330
1F
100
AcDbEntity
  8
0
  6
Continuous
347
237B
 62
     7
100
AcDbLine
 10
450.123325079219
 20
333.7434532750376
 30
0.0
 11
450.123325079219
 21
333.5434532750373
 31
0.0
  0
LINE
  5
25EF
102
{ACAD_REACTORS
330
263E
102
}
330
1F
100
AcDbEntity
  8
0
  6
Continuous
347
237B
 62
     7
100
AcDbLine
 10
443.4733250792184
 20
333.5434532750373
 30
0.0
 11
450.123325079219
 21
333.5434532750373
 31
0.0
  0
LWPOLYLINE
  5
25F0
330
1F
100
AcDbEntity
  8
0
  6
Continuous
347
237B
 62
     7
100
AcDbPolyline
 90
       15
 70
     0
 43
0.0
 10
443.4733250792184
 20
333.5434532750373
 10
443.3613606031192
 20
333.5497410651374
 10
443.250804145319
 20
333.5685253628376
 10
443.1430460173185
 20
333.5995699447376
 10
443.0394413401188
 20
333.6424844071375
 10
442.941293002719
 20
333.6967290757375
 10
442.8498352774193
 20
333.7616217925374
 10
442.7662182981191
 20
333.8363464938375
 10
442.6914935968186
 20
333.9199634731376
 10
442.6266008800191
 20
334.0114211985374
 10
442.5723562113187
 20
334.1095695359377
 10
442.5294417489192
 20
334.2131742130377
 10
442.4983971671188
 20
334.3209323410374
 10
442.4796128693185
 20
334.4314887989376
 10
442.4733250792185
 20
334.5434532750374
  0
LINE
  5
25F1
330
1F
100
AcDbEntity
  8
0
  6
Continuous
347
237B
 62
     7
100
AcDbLine
 10
442.4733250792185
 20
349.9434532750374
 30
0.0
 11
442.4733250792185
 21
334.5434532750374
 31
0.0
  0
LWPOLYLINE
  5
25F2
330
1F
100
AcDbEntity
  8
0
  6
Continuous
347
237B
 62
     7
100
AcDbPolyline
 90
        8
 70
     0
 43
0.0
 10
442.4733250792185
 20
349.9434532750374
 10
442.5159921545189
 20
350.3553787491374
 10
442.5709226346186
 20
350.7660899068373
 10
442.6381165195187
 20
351.1755867481375
 10
442.717573809319
 20
351.5838692730377
 10
442.8092945039186
 20
351.9909374816375
 10
442.9132786033185
 20
352.3967913738375
 10
443.0295261075186
 20
352.8014309496375
  0
LWPOLYLINE
  5
25F3
330
1F
100
AcDbEntity
  8
0
  6
Continuous
347
237B
 62
     7
100
AcDbPolyline
 90
        7
 70
     0
 43
0.0
 10
443.0295261075186
 20
352.8014309496375
 10
443.0460866157188
 20
352.8405456196374
 10
443.0705338388186
 20
352.8752809203374
 10
443.1017650802184
 20
352.9040701093377
 10
443.1383716485186
 20
352.9256146445373
 10
443.178702397319
 20
352.9389427554374
 10
443.2209382002191
 20
352.9434532750374
  0
LINE
  5
25F4
330
1F
100
AcDbEntity
  8
0
  6
Continuous
347
237B
 62
     7
100
AcDbLine
 10
443.4733250792184
 20
352.9434532750374
 30
0.0
 11
443.2209382002191
 21
352.9434532750374
 31
0.0
  0
LWPOLYLINE
  5
25F5
102
{ACAD_REACTORS
330
26E7
102
}
330
1F
100
AcDbEntity
  8
0
  6
Continuous
347
237B
 62
     7
100
AcDbPolyline
 90
        8
 70
     0
 43
0.0
 10
443.4733250792184
 20
352.9434532750374
 10
443.5178292660191
 20
352.9384388574376
 10
443.5601018271188
 20
352.9236470486376
 10
443.5980230396187
 20
352.8998195715376
 10
443.6296913757185
 20
352.8681512353373
 10
443.6535188528185
 20
352.8302300228375
 10
443.668310661719
 20
352.7879574618373
 10
443.6733250792192
 20
352.7434532750376
  0
LINE
  5
25F6
330
1F
100
AcDbEntity
  8
0
  6
Continuous
347
237B
 62
     7
100
AcDbLine
 10
443.6733250792192
 20
342.4543822268374
 30
0.0
 11
443.6733250792192
 21
352.7434532750376
 31
0.0
  0
LINE
  5
25F7
330
1F
100
AcDbEntity
  8
0
  6
Continuous
347
237B
 62
     7
100
AcDbLine
 10
444.7733250792187
 20
341.1434532750377
 30
0.0
 11
443.6733250792192
 21
342.4543822268374
 31
0.0
  0
LINE
  5
25F8
330
1F
100
AcDbEntity
  8
0
  6
Continuous
347
237B
 62
     7
100
AcDbLine
 10
444.7733250792187
 20
340.8434532750375
 30
0.0
 11
444.7733250792187
 21
341.1434532750377
 31
0.0
  0
LWPOLYLINE
  5
25F9
330
1F
100
AcDbEntity
  8
0
  6
Continuous
347
237B
 62
     7
100
AcDbPolyline
 90
        8
 70
     0
 43
0.0
 10
444.7733250792187
 20
340.8434532750375
 10
444.7683106617184
 20
340.7989490882374
 10
444.7535188528188
 20
340.7566765272377
 10
444.7296913757188
 20
340.7187553146373
 10
444.698023039619
 20
340.6870869785375
 10
444.6601018271191
 20
340.6632595014376
 10
444.6178292660185
 20
340.6484676925375
 10
444.5733250792188
 20
340.6434532750377
  0
LINE
  5
25FA
330
1F
100
AcDbEntity
  8
0
  6
Continuous
347
237B
 62
     7
100
AcDbLine
 10
443.873325079219
 20
340.6434532750377
 30
0.0
 11
444.5733250792188
 21
340.6434532750377
 31
0.0
  0
LWPOLYLINE
  5
25FB
330
1F
100
AcDbEntity
  8
0
  6
Continuous
347
237B
 62
     7
100
AcDbPolyline
 90
        8
 70
     0
 43
0.0
 10
443.873325079219
 20
340.6434532750377
 10
443.8288208924184
 20
340.6384388574374
 10
443.7865483314188
 20
340.6236470486374
 10
443.7486271189189
 20
340.5998195715374
 10
443.7169587827191
 20
340.5681512353376
 10
443.6931313057191
 20
340.5302300228377
 10
443.6783394968186
 20
340.4879574618376
 10
443.6733250792192
 20
340.4434532750374
  0
LINE
  5
25FC
330
1F
100
AcDbEntity
  8
0
  6
Continuous
347
237B
 62
     7
100
AcDbLine
 10
443.6733250792192
 20
338.1434532750377
 30
0.0
 11
443.6733250792192
 21
340.4434532750374
 31
0.0
  0
LWPOLYLINE
  5
25FD
330
1F
100
AcDbEntity
  8
0
  6
Continuous
347
237B
 62
     7
100
AcDbPolyline
 90
        8
 70
     0
 43
0.0
 10
443.6733250792192
 20
338.1434532750377
 10
443.6783394968186
 20
338.0989490882375
 10
443.6931313057191
 20
338.0566765272374
 10
443.7169587827191
 20
338.0187553146375
 10
443.7486271189189
 20
337.9870869785377
 10
443.7865483314188
 20
337.9632595014377
 10
443.8288208924184
 20
337.9484676925376
 10
443.873325079219
 20
337.9434532750374
  0
LINE
  5
25FE
330
1F
100
AcDbEntity
  8
0
  6
Continuous
347
237B
 62
     7
100
AcDbLine
 10
446.4733250792185
 20
337.9434532750374
 30
0.0
 11
443.873325079219
 21
337.9434532750374
 31
0.0
  0
LWPOLYLINE
  5
25FF
330
1F
100
AcDbEntity
  8
0
  6
Continuous
347
237B
 62
     7
100
AcDbPolyline
 90
        8
 70
     0
 43
0.0
 10
446.4733250792185
 20
337.9434532750374
 10
446.5178292660191
 20
337.9384388574376
 10
446.5601018271188
 20
337.9236470486376
 10
446.5980230396187
 20
337.8998195715376
 10
446.6296913757185
 20
337.8681512353373
 10
446.6535188528184
 20
337.8302300228374
 10
446.668310661719
 20
337.7879574618373
 10
446.6733250792192
 20
337.7434532750376
  0
LINE
  5
2600
330
1F
100
AcDbEntity
  8
0
  6
Continuous
347
237B
 62
     7
100
AcDbLine
 10
446.6733250792192
 20
336.9434532750374
 30
0.0
 11
446.6733250792192
 21
337.7434532750376
 31
0.0
  0
LWPOLYLINE
  5
2601
330
1F
100
AcDbEntity
  8
0
  6
Continuous
347
237B
 62
     7
100
AcDbPolyline
 90
        8
 70
     0
 43
0.0
 10
446.6733250792192
 20
336.9434532750374
 10
446.668310661719
 20
336.8989490882377
 10
446.6535188528184
 20
336.8566765272376
 10
446.6296913757185
 20
336.8187553146376
 10
446.5980230396187
 20
336.7870869785374
 10
446.5601018271188
 20
336.7632595014375
 10
446.5178292660191
 20
336.7484676925374
 10
446.4733250792185
 20
336.7434532750376
  0
LINE
  5
2602
330
1F
100
AcDbEntity
  8
0
  6
Continuous
347
237B
 62
     7
100
AcDbLine
 10
443.873325079219
 20
336.7434532750376
 30
0.0
 11
446.4733250792185
 21
336.7434532750376
 31
0.0
  0
LWPOLYLINE
  5
2603
330
1F
100
AcDbEntity
  8
0
  6
Continuous
347
237B
 62
     7
100
AcDbPolyline
 90
        8
 70
     0
 43
0.0
 10
443.873325079219
 20
336.7434532750376
 10
443.8288208924184
 20
336.7384388574373
 10
443.7865483314188
 20
336.7236470486373
 10
443.7486271189189
 20
336.6998195715373
 10
443.7169587827191
 20
336.6681512353375
 10
443.6931313057191
 20
336.6302300228376
 10
443.6783394968186
 20
336.5879574618375
 10
443.6733250792192
 20
336.5434532750374
  0
LINE
  5
2604
330
1F
100
AcDbEntity
  8
0
  6
Continuous
347
237B
 62
     7
100
AcDbLine
 10
443.6733250792192
 20
335.7434532750376
 30
0.0
 11
443.6733250792192
 21
336.5434532750374
 31
0.0
  0
LWPOLYLINE
  5
2605
330
1F
100
AcDbEntity
  8
0
  6
Continuous
347
237B
 62
     7
100
AcDbPolyline
 90
       15
 70
     0
 43
0.0
 10
443.6733250792192
 20
335.7434532750376
 10
443.6796128693193
 20
335.6314887989374
 10
443.6983971671186
 20
335.5209323410377
 10
443.729441748919
 20
335.4131742130376
 10
443.7723562113185
 20
335.3095695359375
 10
443.826600880019
 20
335.2114211985377
 10
443.8914935968184
 20
335.1199634731374
 10
443.9662182981189
 20
335.0363464938378
 10
444.0498352774191
 20
334.9616217925377
 10
444.1412930027188
 20
334.8967290757373
 10
444.2394413401187
 20
334.8424844071374
 10
444.3430460173192
 20
334.7995699447374
 10
444.4508041453189
 20
334.7685253628374
 10
444.561360603119
 20
334.7497410651377
 10
444.6733250792192
 20
334.7434532750376
  0
LWPOLYLINE
  5
2606
330
1F
100
AcDbEntity
  8
0
  6
Continuous
347
237B
 62
     7
100
AcDbPolyline
 90
        4
 70
     0
 43
0.0
 10
442.4733250792185
 20
349.9434532750374
 10
442.5910739233192
 20
350.8971570094377
 10
442.7756177114186
 20
351.8478206262376
 10
443.0295261075186
 20
352.8014309496375
  0
LINE
  5
2607
330
1F
100
AcDbEntity
  8
0
  6
Continuous
347
237B
 62
     7
100
AcDbLine
 10
443.4733250792184
 20
333.5434532750373
 30
0.0
 11
460.2733250792186
 21
333.5434532750373
 31
0.0
  0
LINE
  5
2608
330
1F
100
AcDbEntity
  8
0
  6
Continuous
347
237B
 62
     7
100
AcDbLine
 10
442.4733250792185
 20
349.9434532750374
 30
0.0
 11
442.4733250792185
 21
334.5434532750374
 31
0.0
  0
LINE
  5
2609
330
1F
100
AcDbEntity
  8
0
  6
Continuous
347
237B
 62
     7
100
AcDbLine
 10
450.123325079219
 20
333.7434532750376
 30
0.0
 11
453.623325079219
 21
333.7434532750376
 31
0.0
  0
LINE
  5
260A
330
1F
100
AcDbEntity
  8
0
  6
Continuous
347
237B
 62
     7
100
AcDbLine
 10
443.6733250792192
 20
335.7434532750376
 30
0.0
 11
443.6733250792192
 21
336.5434532750374
 31
0.0
  0
LINE
  5
260B
330
1F
100
AcDbEntity
  8
0
  6
Continuous
347
237B
 62
     7
100
AcDbLine
 10
443.6733250792192
 20
338.1434532750377
 30
0.0
 11
443.6733250792192
 21
340.4434532750374
 31
0.0
  0
LINE
  5
260C
330
1F
100
AcDbEntity
  8
0
  6
Continuous
347
237B
 62
     7
100
AcDbLine
 10
443.6733250792192
 20
342.4543822268374
 30
0.0
 11
443.6733250792192
 21
352.7434532750376
 31
0.0
  0
LINE
  5
260D
330
1F
100
AcDbEntity
  8
0
  6
Continuous
347
237B
 62
     7
100
AcDbLine
 10
444.6733250792192
 20
334.7434532750376
 30
0.0
 11
459.0733250792188
 21
334.7434532750376
 31
0.0
  0
LINE
  5
260E
330
1F
100
AcDbEntity
  8
0
  6
Continuous
347
237B
 62
     7
100
AcDbLine
 10
450.123325079219
 20
333.7434532750376
 30
0.0
 11
449.123325079219
 21
334.7434532750376
 31
0.0
  0
LINE
  5
260F
330
1F
100
AcDbEntity
  8
0
  6
Continuous
347
237B
 62
     7
100
AcDbLine
 10
444.7733250792187
 20
340.8434532750375
 30
0.0
 11
444.7733250792187
 21
341.1434532750377
 31
0.0
  0
LINE
  5
2610
330
1F
100
AcDbEntity
  8
0
  6
Continuous
347
237B
 62
     7
100
AcDbLine
 10
443.873325079219
 20
336.7434532750376
 30
0.0
 11
446.4733250792185
 21
336.7434532750376
 31
0.0
  0
LINE
  5
2611
330
1F
100
AcDbEntity
  8
0
  6
Continuous
347
237B
 62
     7
100
AcDbLine
 10
457.2733250792187
 20
336.7434532750376
 30
0.0
 11
459.873325079219
 21
336.7434532750376
 31
0.0
  0
LINE
  5
2612
330
1F
100
AcDbEntity
  8
0
  6
Continuous
347
237B
 62
     7
100
AcDbLine
 10
444.7733250792187
 20
341.1434532750377
 30
0.0
 11
443.6733250792192
 21
342.4543822268374
 31
0.0
  0
LINE
  5
2613
330
1F
100
AcDbEntity
  8
0
  6
Continuous
347
237B
 62
     7
100
AcDbLine
 10
459.873325079219
 20
337.9434532750374
 30
0.0
 11
457.2733250792187
 21
337.9434532750374
 31
0.0
  0
LINE
  5
2614
330
1F
100
AcDbEntity
  8
0
  6
Continuous
347
237B
 62
     7
100
AcDbLine
 10
446.4733250792185
 20
337.9434532750374
 30
0.0
 11
443.873325079219
 21
337.9434532750374
 31
0.0
  0
LINE
  5
2615
330
1F
100
AcDbEntity
  8
0
  6
Continuous
347
237B
 62
     7
100
AcDbLine
 10
446.6733250792192
 20
336.9434532750374
 30
0.0
 11
446.6733250792192
 21
337.7434532750376
 31
0.0
  0
LINE
  5
2616
330
1F
100
AcDbEntity
  8
0
  6
Continuous
347
237B
 62
     7
100
AcDbLine
 10
443.873325079219
 20
340.6434532750377
 30
0.0
 11
444.5733250792188
 21
340.6434532750377
 31
0.0
  0
LINE
  5
2617
330
1F
100
AcDbEntity
  8
0
  6
Continuous
347
237B
 62
     7
100
AcDbLine
 10
459.1733250792192
 20
340.6434532750377
 30
0.0
 11
459.873325079219
 21
340.6434532750377
 31
0.0
  0
LINE
  5
2618
330
1F
100
AcDbEntity
  8
0
  6
Continuous
347
237B
 62
     7
100
AcDbLine
 10
450.123325079219
 20
333.7434532750376
 30
0.0
 11
450.123325079219
 21
333.5434532750373
 31
0.0
  0
LINE
  5
2619
330
1F
100
AcDbEntity
  8
0
  6
Continuous
347
237B
 62
     7
100
AcDbLine
 10
453.623325079219
 20
333.7434532750376
 30
0.0
 11
453.623325079219
 21
333.5434532750373
 31
0.0
  0
LINE
  5
261A
330
1F
100
AcDbEntity
  8
0
  6
Continuous
347
237B
 62
     7
100
AcDbLine
 10
457.0733250792188
 20
337.7434532750376
 30
0.0
 11
457.0733250792188
 21
336.9434532750374
 31
0.0
  0
LINE
  5
261B
330
1F
100
AcDbEntity
  8
0
  6
Continuous
347
237B
 62
     7
100
AcDbLine
 10
458.9733250792185
 20
341.1434532750377
 30
0.0
 11
458.9733250792185
 21
340.8434532750375
 31
0.0
  0
LINE
  5
261C
330
1F
100
AcDbEntity
  8
0
  6
Continuous
347
237B
 62
     7
100
AcDbLine
 10
460.0733250792188
 20
342.4543822268374
 30
0.0
 11
458.9733250792185
 21
341.1434532750377
 31
0.0
  0
LINE
  5
261D
330
1F
100
AcDbEntity
  8
0
  6
Continuous
347
237B
 62
     7
100
AcDbLine
 10
460.0733250792188
 20
352.7434532750376
 30
0.0
 11
460.0733250792188
 21
342.4543822268374
 31
0.0
  0
LINE
  5
261E
330
1F
100
AcDbEntity
  8
0
  6
Continuous
347
237B
 62
     7
100
AcDbLine
 10
460.0733250792188
 20
340.4434532750374
 30
0.0
 11
460.0733250792188
 21
338.1434532750377
 31
0.0
  0
LINE
  5
261F
330
1F
100
AcDbEntity
  8
0
  6
Continuous
347
237B
 62
     7
100
AcDbLine
 10
460.0733250792188
 20
336.5434532750374
 30
0.0
 11
460.0733250792188
 21
335.7434532750376
 31
0.0
  0
LINE
  5
2620
330
1F
100
AcDbEntity
  8
0
  6
Continuous
347
237B
 62
     7
100
AcDbLine
 10
453.623325079219
 20
333.7434532750376
 30
0.0
 11
454.623325079219
 21
334.7434532750376
 31
0.0
  0
LINE
  5
2621
330
1F
100
AcDbEntity
  8
0
  6
Continuous
347
237B
 62
     7
100
AcDbLine
 10
460.5257119583191
 20
352.9434532750374
 30
0.0
 11
460.2733250792186
 21
352.9434532750374
 31
0.0
  0
LINE
  5
2622
330
1F
100
AcDbEntity
  8
0
  6
Continuous
347
237B
 62
     7
100
AcDbLine
 10
443.4733250792184
 20
352.9434532750374
 30
0.0
 11
443.2209382002191
 21
352.9434532750374
 31
0.0
  0
LINE
  5
2623
330
1F
100
AcDbEntity
  8
0
  6
Continuous
347
237B
 62
     7
100
AcDbLine
 10
461.2733250792187
 20
334.5434532750374
 30
0.0
 11
461.2733250792187
 21
349.9434532750374
 31
0.0
  0
LWPOLYLINE
  5
2624
330
1F
100
AcDbEntity
  8
0
  6
Continuous
347
237B
 62
     7
100
AcDbPolyline
 90
        4
 70
     0
 43
0.0
 10
460.7171240510186
 20
352.8014309496375
 10
460.9712727907187
 20
351.8467749413376
 10
461.1558669159192
 20
350.8953235007375
 10
461.2733250792187
 20
349.9434532750374
  0
ARC
  5
2625
102
{ACAD_REACTORS
330
263B
330
26C6
102
}
330
1F
100
AcDbEntity
  8
0
  6
Continuous
347
237B
 62
     7
100
AcDbCircle
 10
460.2733250792186
 20
334.5434532750374
 30
0.0
 40
1.0
100
AcDbArc
 50
270.0
 51
0.0
  0
ARC
  5
2626
102
{ACAD_REACTORS
330
263B
330
26C6
330
26E7
102
}
330
1F
100
AcDbEntity
  8
0
  6
Continuous
347
237B
 62
     7
100
AcDbCircle
 10
443.4733250792184
 20
334.5434532750374
 30
0.0
 40
1.0
100
AcDbArc
 50
180.0
 51
270.0
  0
ARC
  5
2627
330
1F
100
AcDbEntity
  8
0
  6
Continuous
347
237B
 62
     7
100
AcDbCircle
 10
459.0733250792188
 20
335.7434532750376
 30
0.0
 40
1.0
100
AcDbArc
 50
270.0
 51
0.0
  0
ARC
  5
2628
330
1F
100
AcDbEntity
  8
0
  6
Continuous
347
237B
 62
     7
100
AcDbCircle
 10
444.6733250792192
 20
335.7434532750376
 30
0.0
 40
1.0
100
AcDbArc
 50
180.0
 51
270.0
  0
ARC
  5
2629
102
{ACAD_REACTORS
330
263E
102
}
330
1F
100
AcDbEntity
  8
0
  6
Continuous
347
237B
 62
     7
100
AcDbCircle
 10
443.4733250792184
 20
352.7434532750376
 30
0.0
 40
0.2
100
AcDbArc
 50
0.0
 51
90.0
  0
ARC
  5
262A
330
1F
100
AcDbEntity
  8
0
  6
Continuous
347
237B
 62
     7
100
AcDbCircle
 10
443.2209382002191
 20
352.7434532750376
 30
0.0
 40
0.2
100
AcDbArc
 50
90.0
 51
163.1487267946955
  0
ARC
  5
262B
330
1F
100
AcDbEntity
  8
0
  6
Continuous
347
237B
 62
     7
100
AcDbCircle
 10
460.5257119583191
 20
352.7434532750376
 30
0.0
 40
0.2
100
AcDbArc
 50
16.85127320530451
 51
90.0
  0
ARC
  5
262C
330
1F
100
AcDbEntity
  8
0
  6
Continuous
347
237B
 62
     7
100
AcDbCircle
 10
460.2733250792186
 20
352.7434532750376
 30
0.0
 40
0.2
100
AcDbArc
 50
90.0
 51
180.0
  0
ARC
  5
262D
330
1F
100
AcDbEntity
  8
0
  6
Continuous
347
237B
 62
     7
100
AcDbCircle
 10
444.5733250792188
 20
340.8434532750375
 30
0.0
 40
0.2
100
AcDbArc
 50
270.0
 51
0.0
  0
ARC
  5
262E
330
1F
100
AcDbEntity
  8
0
  6
Continuous
347
237B
 62
     7
100
AcDbCircle
 10
446.4733250792185
 20
337.7434532750376
 30
0.0
 40
0.2
100
AcDbArc
 50
0.0
 51
90.0
  0
ARC
  5
262F
330
1F
100
AcDbEntity
  8
0
  6
Continuous
347
237B
 62
     7
100
AcDbCircle
 10
446.4733250792185
 20
336.9434532750374
 30
0.0
 40
0.2
100
AcDbArc
 50
270.0
 51
0.0
  0
ARC
  5
2630
330
1F
100
AcDbEntity
  8
0
  6
Continuous
347
237B
 62
     7
100
AcDbCircle
 10
459.1733250792192
 20
340.8434532750375
 30
0.0
 40
0.2
100
AcDbArc
 50
180.0
 51
270.0
  0
ARC
  5
2631
330
1F
100
AcDbEntity
  8
0
  6
Continuous
347
237B
 62
     7
100
AcDbCircle
 10
457.2733250792187
 20
337.7434532750376
 30
0.0
 40
0.2
100
AcDbArc
 50
90.0
 51
180.0
  0
ARC
  5
2632
330
1F
100
AcDbEntity
  8
0
  6
Continuous
347
237B
 62
     7
100
AcDbCircle
 10
457.2733250792187
 20
336.9434532750374
 30
0.0
 40
0.2
100
AcDbArc
 50
180.0
 51
270.0
  0
ARC
  5
2633
330
1F
100
AcDbEntity
  8
0
  6
Continuous
347
237B
 62
     7
100
AcDbCircle
 10
443.873325079219
 20
340.4434532750374
 30
0.0
 40
0.2
100
AcDbArc
 50
90.0
 51
180.0
  0
ARC
  5
2634
330
1F
100
AcDbEntity
  8
0
  6
Continuous
347
237B
 62
     7
100
AcDbCircle
 10
443.873325079219
 20
338.1434532750377
 30
0.0
 40
0.2
100
AcDbArc
 50
180.0
 51
270.0
  0
ARC
  5
2635
330
1F
100
AcDbEntity
  8
0
  6
Continuous
347
237B
 62
     7
100
AcDbCircle
 10
443.873325079219
 20
336.5434532750374
 30
0.0
 40
0.2
100
AcDbArc
 50
90.0
 51
180.0
  0
ARC
  5
2636
330
1F
100
AcDbEntity
  8
0
  6
Continuous
347
237B
 62
     7
100
AcDbCircle
 10
459.873325079219
 20
340.4434532750374
 30
0.0
 40
0.2
100
AcDbArc
 50
0.0
 51
90.0
  0
ARC
  5
2637
330
1F
100
AcDbEntity
  8
0
  6
Continuous
347
237B
 62
     7
100
AcDbCircle
 10
459.873325079219
 20
338.1434532750377
 30
0.0
 40
0.2
100
AcDbArc
 50
270.0
 51
0.0
  0
ARC
  5
2638
330
1F
100
AcDbEntity
  8
0
  6
Continuous
347
237B
 62
     7
100
AcDbCircle
 10
459.873325079219
 20
336.5434532750374
 30
0.0
 40
0.2
100
AcDbArc
 50
0.0
 51
90.0
  0
SOLID
  5
263F
330
1F
100
AcDbEntity
  8
0
  6
Continuous
347
237B
 62
     7
100
AcDbTrace
 10
515.1241184884538
 20
335.4491642657836
 30
0.0
 11
515.0734428128035
 21
335.3984878168339
 31
0.0
 12
515.0734428128035
 22
335.4491642657836
 32
0.0
 13
515.0734428128035
 23
335.4491642657836
 33
0.0
  0
LINE
  5
2640
330
1F
100
AcDbEntity
  8
0
  6
Continuous
347
237B
 62
     7
100
AcDbLine
 10
495.6264029577542
 20
350.7594400264338
 30
0.0
 11
495.4451414003542
 21
350.6749163740837
 31
0.0
  0
LINE
  5
2641
330
1F
100
AcDbEntity
  8
0
  6
Continuous
347
237B
 62
     7
100
AcDbLine
 10
496.0490212195036
 20
349.8531322394342
 30
0.0
 11
495.8677596621036
 21
349.7686085870841
 31
0.0
  0
LINE
  5
2642
330
1F
100
AcDbEntity
  8
0
  6
Continuous
347
237B
 62
     7
100
AcDbLine
 10
496.2786385277031
 20
348.8874760163339
 30
0.0
 11
496.4599000851031
 21
348.971999668684
 31
0.0
  0
LINE
  5
2643
330
1F
100
AcDbEntity
  8
0
  6
Continuous
347
237B
 62
     7
100
AcDbLine
 10
508.2786385277031
 20
332.887476016334
 30
0.0
 11
501.2786385277031
 21
332.887476016334
 31
0.0
  0
LINE
  5
2644
330
1F
100
AcDbEntity
  8
0
  6
Continuous
347
237B
 62
     7
100
AcDbLine
 10
496.2786385277031
 20
336.1874760163341
 30
0.0
 11
496.2786385277031
 21
348.8874760163339
 31
0.0
  0
LINE
  5
2645
330
1F
100
AcDbEntity
  8
0
  6
Continuous
347
237B
 62
     7
100
AcDbLine
 10
496.4786385277038
 20
335.9874760163338
 30
0.0
 11
496.4786385277038
 21
336.1874760163341
 31
0.0
  0
LINE
  5
2646
330
1F
100
AcDbEntity
  8
0
  6
Continuous
347
237B
 62
     7
100
AcDbLine
 10
496.4786385277038
 20
336.1874760163341
 30
0.0
 11
496.4786385277038
 21
348.8874760163339
 31
0.0
  0
LINE
  5
2647
330
1F
100
AcDbEntity
  8
0
  6
Continuous
347
237B
 62
     7
100
AcDbLine
 10
508.4786385277038
 20
333.0874760163338
 30
0.0
 11
508.2786385277031
 21
333.0874760163338
 31
0.0
  0
LINE
  5
2648
330
1F
100
AcDbEntity
  8
0
  6
Continuous
347
237B
 62
     7
100
AcDbLine
 10
508.2786385277031
 20
333.0874760163338
 30
0.0
 11
501.2786385277031
 21
333.0874760163338
 31
0.0
  0
LINE
  5
2649
330
1F
100
AcDbEntity
  8
0
  6
Continuous
347
237B
 62
     7
100
AcDbLine
 10
501.0786385277042
 20
333.0874760163338
 30
0.0
 11
501.2786385277031
 21
333.0874760163338
 31
0.0
  0
LINE
  5
264A
330
1F
100
AcDbEntity
  8
0
  6
Continuous
347
237B
 62
     7
100
AcDbLine
 10
497.3936568727039
 20
338.9908247854342
 30
0.0
 11
496.4786385277038
 21
342.6607629174337
 31
0.0
  0
LINE
  5
264B
330
1F
100
AcDbEntity
  8
0
  6
Continuous
347
237B
 62
     7
100
AcDbLine
 10
497.5877160179534
 20
339.039209164534
 30
0.0
 11
496.4786385277038
 21
343.4874760163339
 31
0.0
  0
LINE
  5
264C
330
1F
100
AcDbEntity
  8
0
  6
Continuous
347
237B
 62
     7
100
AcDbLine
 10
513.0786385277042
 20
335.9874760163338
 30
0.0
 11
508.2786385277031
 21
335.9874760163338
 31
0.0
  0
LINE
  5
264D
330
1F
100
AcDbEntity
  8
0
  6
Continuous
347
237B
 62
     7
100
AcDbLine
 10
501.2786385277031
 20
335.9874760163338
 30
0.0
 11
496.4786385277038
 21
335.9874760163338
 31
0.0
  0
LINE
  5
264E
330
1F
100
AcDbEntity
  8
0
  6
Continuous
347
237B
 62
     7
100
AcDbLine
 10
513.2786385277031
 20
336.1874760163341
 30
0.0
 11
513.0786385277042
 21
336.1874760163341
 31
0.0
  0
LINE
  5
264F
330
1F
100
AcDbEntity
  8
0
  6
Continuous
347
237B
 62
     7
100
AcDbLine
 10
513.0786385277042
 20
336.1874760163341
 30
0.0
 11
508.4786385277038
 21
336.1874760163341
 31
0.0
  0
LINE
  5
2650
330
1F
100
AcDbEntity
  8
0
  6
Continuous
347
237B
 62
     7
100
AcDbLine
 10
501.0786385277042
 20
336.1874760163341
 30
0.0
 11
496.4786385277038
 21
336.1874760163341
 31
0.0
  0
LINE
  5
2651
330
1F
100
AcDbEntity
  8
0
  6
Continuous
347
237B
 62
     7
100
AcDbLine
 10
496.2786385277031
 20
336.1874760163341
 30
0.0
 11
496.4786385277038
 21
336.1874760163341
 31
0.0
  0
LINE
  5
2652
330
1F
100
AcDbEntity
  8
0
  6
Continuous
347
237B
 62
     7
100
AcDbLine
 10
501.0786385277042
 20
333.0874760163338
 30
0.0
 11
501.0786385277042
 21
336.1874760163341
 31
0.0
  0
LINE
  5
2653
330
1F
100
AcDbEntity
  8
0
  6
Continuous
347
237B
 62
     7
100
AcDbLine
 10
501.2786385277031
 20
332.887476016334
 30
0.0
 11
501.2786385277031
 21
333.0874760163338
 31
0.0
  0
LINE
  5
2654
330
1F
100
AcDbEntity
  8
0
  6
Continuous
347
237B
 62
     7
100
AcDbLine
 10
501.2786385277031
 20
333.0874760163338
 30
0.0
 11
501.2786385277031
 21
335.9874760163338
 31
0.0
  0
LINE
  5
2655
102
{ACAD_REACTORS
330
2674
102
}
330
1F
100
AcDbEntity
  8
0
  6
Continuous
347
237B
 62
     7
100
AcDbLine
 10
496.2786385277031
 20
348.8874760163339
 30
0.0
 11
495.4451414003542
 21
350.6749163740837
 31
0.0
  0
LINE
  5
2656
102
{ACAD_REACTORS
330
2677
102
}
330
1F
100
AcDbEntity
  8
0
  6
Continuous
347
237B
 62
     7
100
AcDbLine
 10
496.4599000851031
 20
348.971999668684
 30
0.0
 11
495.6264029577542
 21
350.7594400264338
 31
0.0
  0
LINE
  5
2657
330
1F
100
AcDbEntity
  8
0
  6
Continuous
347
237B
 62
     7
100
AcDbLine
 10
497.5877160179534
 20
339.039209164534
 30
0.0
 11
497.3936568727039
 21
338.9908247854342
 31
0.0
  0
LINE
  5
2658
330
1F
100
AcDbEntity
  8
0
  6
Continuous
347
237B
 62
     7
100
AcDbLine
 10
497.4667550701542
 20
339.5243570276839
 30
0.0
 11
497.2726959249039
 21
339.475972648534
 31
0.0
  0
LINE
  5
2659
330
1F
100
AcDbEntity
  8
0
  6
Continuous
347
237B
 62
     7
100
AcDbLine
 10
511.9695610374037
 20
339.039209164534
 30
0.0
 11
512.1636201826532
 21
338.9908247854342
 31
0.0
  0
LINE
  5
265A
330
1F
100
AcDbEntity
  8
0
  6
Continuous
347
237B
 62
     7
100
AcDbLine
 10
512.0905219852038
 20
339.5243570276839
 30
0.0
 11
512.2845811304541
 21
339.475972648534
 31
0.0
  0
LINE
  5
265B
330
1F
100
AcDbEntity
  8
0
  6
Continuous
347
237B
 62
     7
100
AcDbLine
 10
508.2786385277031
 20
335.9874760163338
 30
0.0
 11
508.2786385277031
 21
333.0874760163338
 31
0.0
  0
LINE
  5
265C
330
1F
100
AcDbEntity
  8
0
  6
Continuous
347
237B
 62
     7
100
AcDbLine
 10
508.2786385277031
 20
332.887476016334
 30
0.0
 11
508.2786385277031
 21
333.0874760163338
 31
0.0
  0
LINE
  5
265D
330
1F
100
AcDbEntity
  8
0
  6
Continuous
347
237B
 62
     7
100
AcDbLine
 10
508.4786385277038
 20
333.0874760163338
 30
0.0
 11
508.4786385277038
 21
336.1874760163341
 31
0.0
  0
LINE
  5
265E
330
1F
100
AcDbEntity
  8
0
  6
Continuous
347
237B
 62
     7
100
AcDbLine
 10
513.0973769702541
 20
348.971999668684
 30
0.0
 11
513.9308740976039
 21
350.7594400264338
 31
0.0
  0
LINE
  5
265F
330
1F
100
AcDbEntity
  8
0
  6
Continuous
347
237B
 62
     7
100
AcDbLine
 10
513.2786385277031
 20
348.8874760163339
 30
0.0
 11
514.1121356550038
 21
350.6749163740837
 31
0.0
  0
LINE
  5
2660
330
1F
100
AcDbEntity
  8
0
  6
Continuous
347
237B
 62
     7
100
AcDbLine
 10
513.2786385277031
 20
348.8874760163339
 30
0.0
 11
513.0786385277042
 21
348.8874760163339
 31
0.0
  0
LINE
  5
2661
330
1F
100
AcDbEntity
  8
0
  6
Continuous
347
237B
 62
     7
100
AcDbLine
 10
496.2786385277031
 20
348.8874760163339
 30
0.0
 11
496.4786385277038
 21
348.8874760163339
 31
0.0
  0
LINE
  5
2662
330
1F
100
AcDbEntity
  8
0
  6
Continuous
347
237B
 62
     7
100
AcDbLine
 10
513.0786385277042
 20
348.8874760163339
 30
0.0
 11
513.0786385277042
 21
336.1874760163341
 31
0.0
  0
LINE
  5
2663
330
1F
100
AcDbEntity
  8
0
  6
Continuous
347
237B
 62
     7
100
AcDbLine
 10
513.0786385277042
 20
335.9874760163338
 30
0.0
 11
513.0786385277042
 21
336.1874760163341
 31
0.0
  0
LINE
  5
2664
330
1F
100
AcDbEntity
  8
0
  6
Continuous
347
237B
 62
     7
100
AcDbLine
 10
513.2786385277031
 20
348.8874760163339
 30
0.0
 11
513.2786385277031
 21
336.1874760163341
 31
0.0
  0
LINE
  5
2665
330
1F
100
AcDbEntity
  8
0
  6
Continuous
347
237B
 62
     7
100
AcDbLine
 10
511.9695610374037
 20
339.039209164534
 30
0.0
 11
513.0786385277042
 21
343.4874760163339
 31
0.0
  0
LINE
  5
2666
330
1F
100
AcDbEntity
  8
0
  6
Continuous
347
237B
 62
     7
100
AcDbLine
 10
512.1636201826532
 20
338.9908247854342
 30
0.0
 11
513.0786385277042
 21
342.6607629174337
 31
0.0
  0
LINE
  5
2667
330
1F
100
AcDbEntity
  8
0
  6
Continuous
347
237B
 62
     7
100
AcDbLine
 10
513.2786385277031
 20
348.8874760163339
 30
0.0
 11
513.0973769702541
 21
348.971999668684
 31
0.0
  0
LINE
  5
2668
330
1F
100
AcDbEntity
  8
0
  6
Continuous
347
237B
 62
     7
100
AcDbLine
 10
513.5082558358535
 20
349.8531322394342
 30
0.0
 11
513.6895173932535
 21
349.7686085870841
 31
0.0
  0
LINE
  5
2669
102
{ACAD_REACTORS
330
2674
102
}
330
1F
100
AcDbEntity
  8
0
  6
Continuous
347
237B
 62
     7
100
AcDbLine
 10
513.9308740976039
 20
350.7594400264338
 30
0.0
 11
514.1121356550038
 21
350.6749163740837
 31
0.0
  0
ARC
  5
266A
330
1F
100
AcDbEntity
  8
0
  6
Continuous
347
237B
 62
     7
100
AcDbCircle
 10
508.2786385277031
 20
333.0874760163338
 30
0.0
 40
0.2
100
AcDbArc
 50
270.0
 51
0.0
  0
ARC
  5
266B
102
{ACAD_REACTORS
330
2677
102
}
330
1F
100
AcDbEntity
  8
0
  6
Continuous
347
237B
 62
     7
100
AcDbCircle
 10
501.2786385277031
 20
333.0874760163338
 30
0.0
 40
0.2
100
AcDbArc
 50
180.0
 51
270.0
  0
ARC
  5
266C
330
1F
100
AcDbEntity
  8
0
  6
Continuous
347
237B
 62
     7
100
AcDbCircle
 10
513.0786385277042
 20
336.1874760163341
 30
0.0
 40
0.2
100
AcDbArc
 50
270.0
 51
0.0
  0
ARC
  5
266D
330
1F
100
AcDbEntity
  8
0
  6
Continuous
347
237B
 62
     7
100
AcDbCircle
 10
496.4786385277038
 20
336.1874760163341
 30
0.0
 40
0.2
100
AcDbArc
 50
180.0
 51
270.0
  0
ARC
  5
266E
330
1F
100
AcDbEntity
  8
0
  6
Continuous
347
237B
 62
     7
100
AcDbCircle
 10
496.2786385277031
 20
348.8874760163339
 30
0.0
 40
0.2
100
AcDbArc
 50
0.0
 51
24.9999999999994
  0
ARC
  5
266F
330
1F
100
AcDbEntity
  8
0
  6
Continuous
347
237B
 62
     7
100
AcDbCircle
 10
513.2786385277031
 20
348.8874760163339
 30
0.0
 40
0.2
100
AcDbArc
 50
155.0000000000006
 51
180.0
  0
ARC
  5
2670
330
1F
100
AcDbEntity
  8
0
  6
Continuous
347
237B
 62
     7
100
AcDbCircle
 10
508.4786385277038
 20
335.9874760163338
 30
0.0
 40
0.2
100
AcDbArc
 50
90.0
 51
180.0
  0
ARC
  5
2671
330
1F
100
AcDbEntity
  8
0
  6
Continuous
347
237B
 62
     7
100
AcDbCircle
 10
501.0786385277042
 20
335.9874760163338
 30
0.0
 40
0.2
100
AcDbArc
 50
0.0
 51
90.0
  0
DIMENSION
  5
26C4
102
{ACAD_XDICTIONARY
360
26C5
102
}
102
{ACAD_REACTORS
330
26C6
102
}
330
1F
100
AcDbEntity
  8
0
100
AcDbDimension
280
     0
  2
*D95
 10
461.2733250792187
 20
328.9604933206276
 30
0.0
 11
451.8733250792186
 21
330.0854933206276
 31
0.0
 70
    32
  1
19
 71
     5
 42
18.80000000000018
 73
     0
 74
     0
 75
     0
  3
ISO-25
100
AcDbAlignedDimension
 13
442.4733250792185
 23
334.5434532750374
 33
0.0
 14
461.2733250792187
 24
334.5434532750374
 34
0.0
 50
0.0
100
AcDbRotatedDimension
1001
ACAD
1000
DSTYLE
1002
{
1070
   340
1005
11
1002
}
  0
DIMENSION
  5
26E5
102
{ACAD_XDICTIONARY
360
26E6
102
}
102
{ACAD_REACTORS
330
26E7
102
}
330
1F
100
AcDbEntity
  8
0
100
AcDbDimension
280
     0
  2
*D96
 10
437.325736080385
 20
352.9384388574376
 30
0.0
 11
436.200736080385
 21
343.2409460662375
 31
0.0
 70
    32
  1
19.5
 71
     5
 42
19.39498558240029
 73
     0
 74
     0
 75
     0
  3
ISO-25
100
AcDbAlignedDimension
 13
443.4733250792184
 23
333.5434532750373
 33
0.0
 14
443.5178292660191
 24
352.9384388574376
 34
0.0
 50
90.0
100
AcDbRotatedDimension
1001
ACAD
1000
DSTYLE
1002
{
1070
   340
1005
11
1002
}
  0
DIMENSION
  5
2718
330
1F
100
AcDbEntity
  8
0
100
AcDbDimension
280
     0
  2
*D97
 10
514.1121356550038
 20
327.410676379976
 30
0.0
 11
504.778638527679
 21
327.410676379976
 31
0.0
 70
   160
  1
19
 71
     5
 42
18.66699425464958
 73
     0
 74
     0
 75
     0
  3
ISO-25
100
AcDbAlignedDimension
 13
495.4451414003542
 23
325.5952001894997
 33
0.0
 14
514.1121356550038
 24
325.5952001894997
 34
0.0
 50
0.0
100
AcDbRotatedDimension
1001
ACAD
1000
DSTYLE
1002
{
1070
   340
1005
11
1002
}
  0
DIMENSION
  5
275D
330
1F
100
AcDbEntity
  8
0
100
AcDbDimension
280
     0
  2
*D98
 10
487.2204714356967
 20
350.7594400264338
 30
0.0
 11
487.2204714356967
 21
341.8234580213838
 31
0.0
 70
   160
  1
18
 71
     5
 42
17.87196401010004
 73
     0
 74
     0
 75
     0
  3
ISO-25
100
AcDbAlignedDimension
 13
489.0359476261728
 23
332.8874760163338
 33
0.0
 14
489.0359476261728
 24
350.7594400264338
 34
0.0
 50
90.0
100
AcDbRotatedDimension
1001
ACAD
1000
DSTYLE
1002
{
1070
   340
1005
11
1002
}
  0
MTEXT
  5
27D1
330
1F
100
AcDbEntity
  8
0
100
AcDbMText
 10
434.3990592997474
 20
322.3492559752399
 30
0.0
 40
2.5
 41
59.44011751511346
 46
5.183284728966077
 71
     1
 72
     1
  1
{\fArial|b0|i0|c0|p32;   16*16\fSimSun|b0|i0|c134|p0;型材\fSimSun|b0|i0|c134|p0;截面图}
  7
T1
 73
     1
 44
1.0
1001
ACAD
1000
MTEXTBEGIN
1070
    73
1070
     1
1070
    44
1040
1.0
1070
    74
1070
     0
1000
MTEXTEND
1000
ACAD_MTEXT_DEFINED_HEIGHT_BEGIN
1070
    46
1040
5.183284728966077
1000
ACAD_MTEXT_DEFINED_HEIGHT_END
  0
MTEXT
  5
27F8
330
1F
100
AcDbEntity
  8
0
100
AcDbMText
 10
487.2837735408256
 20
321.5369250044517
 30
0.0
 40
2.5
 41
59.44011751511346
 46
5.183284728966077
 71
     1
 72
     1
  1
{\fArial|b0|i0|c0|p32;   16*16\fSimSun|b0|i0|c134|p0;卡扣截面图}
  7
T1
 73
     1
 44
1.0
1001
ACAD
1000
MTEXTBEGIN
1070
    73
1070
     1
1070
    44
1040
1.0
1070
    74
1070
     0
1000
MTEXTEND
1000
ACAD_MTEXT_DEFINED_HEIGHT_BEGIN
1070
    46
1040
5.183284728966077
1000
ACAD_MTEXT_DEFINED_HEIGHT_END
  0
LWPOLYLINE
  5
27F9
330
1F
100
AcDbEntity
  8
0
 62
     1
100
AcDbPolyline
 90
        4
 70
     1
 43
0.0
 10
363.551585085875
 20
362.7092150354183
 10
528.5449729654787
 20
362.7092150354183
 10
528.5449729654787
 20
309.66070804628
 10
363.551585085875
 20
309.6607080462799
  0
ENDSEC
  0
SECTION
  2
OBJECTS
  0
DICTIONARY
  5
C
330
0
100
AcDbDictionary
281
     1
  3
ACAD_COLOR
350
6C
  3
ACAD_GROUP
350
D
  3
ACAD_IMAGE_VARS
350
23C1
  3
ACAD_LAYOUT
350
1A
  3
ACAD_MATERIAL
350
6B
  3
ACAD_MLEADERSTYLE
350
2397
  3
ACAD_MLINESTYLE
350
17
  3
ACAD_PLOTSETTINGS
350
19
  3
ACAD_PLOTSTYLENAME
350
E
  3
ACAD_SCALELIST
350
2399
  3
ACAD_TABLESTYLE
350
92
  3
ACAD_VISUALSTYLE
350
237E
  3
ACAD_WIPEOUT_VARS
350
22DA
  3
AcDbVariableDictionary
350
59
  3
TCH_DBCONFIG
350
23BF
  0
DICTIONARY
  5
26C5
330
26C4
100
AcDbDictionary
280
     1
281
     1
  3
ACAD_DIMASSOC
360
26C6
  0
DICTIONARY
  5
26E6
330
26E5
100
AcDbDictionary
280
     1
281
     1
  3
ACAD_DIMASSOC
360
26E7
  0
DICTIONARY
  5
6C
102
{ACAD_REACTORS
330
C
102
}
330
C
100
AcDbDictionary
281
     1
  0
DICTIONARY
  5
D
102
{ACAD_REACTORS
330
C
102
}
330
C
100
AcDbDictionary
281
     1
  0
RASTERVARIABLES
  5
23C1
102
{ACAD_REACTORS
330
C
102
}
330
C
100
AcDbRasterVariables
 90
        0
 70
     1
 71
     1
 72
     1
  0
DICTIONARY
  5
1A
102
{ACAD_REACTORS
330
C
102
}
330
C
100
AcDbDictionary
281
     1
  3
Model
350
22
  3
布局1
350
1E
  3
布局2
350
26
  0
DICTIONARY
  5
6B
102
{ACAD_REACTORS
330
C
102
}
330
C
100
AcDbDictionary
281
     1
  3
ByBlock
350
237C
  3
ByLayer
350
237B
  3
Global
350
237D
  0
DICTIONARY
  5
2397
102
{ACAD_REACTORS
330
C
102
}
330
C
100
AcDbDictionary
281
     1
  3
Standard
350
2398
  0
DICTIONARY
  5
17
102
{ACAD_REACTORS
330
C
102
}
330
C
100
AcDbDictionary
281
     1
  3
Standard
350
18
  0
DICTIONARY
  5
19
102
{ACAD_REACTORS
330
C
102
}
330
C
100
AcDbDictionary
281
     1
  0
ACDBDICTIONARYWDFLT
  5
E
102
{ACAD_REACTORS
330
C
102
}
330
C
100
AcDbDictionary
281
     1
  3
Normal
350
F
100
AcDbDictionaryWithDefault
340
F
  0
DICTIONARY
  5
2399
102
{ACAD_REACTORS
330
C
102
}
330
C
100
AcDbDictionary
281
     1
  3
A0
350
239A
  3
A1
350
239B
  3
A2
350
239C
  3
A3
350
239D
  3
A4
350
239E
  3
A5
350
239F
  3
A6
350
23A0
  3
A7
350
23A1
  3
A8
350
23A2
  3
A9
350
23A3
  3
B0
350
23A4
  3
B1
350
23A5
  3
B2
350
23A6
  3
B3
350
23A7
  3
B4
350
23A8
  3
B5
350
23A9
  3
B6
350
23AA
  0
DICTIONARY
  5
92
102
{ACAD_REACTORS
330
C
102
}
330
C
100
AcDbDictionary
281
     1
  3
Standard
350
A37
  0
DICTIONARY
  5
237E
102
{ACAD_REACTORS
330
C
102
}
330
C
100
AcDbDictionary
281
     1
  3
2dWireframe
350
2383
  3
Basic
350
2386
  3
Brighten
350
238A
  3
ColorChange
350
238E
  3
Conceptual
350
2388
  3
Dim
350
2389
  3
EdgeColorOff
350
2391
  3
Facepattern
350
238D
  3
Flat
350
237F
  3
FlatWithEdges
350
2380
  3
Gouraud
350
2381
  3
GouraudWithEdges
350
2382
  3
Hidden
350
2385
  3
JitterOff
350
238F
  3
Linepattern
350
238C
  3
OverhangOff
350
2390
  3
Realistic
350
2387
  3
Shaded
350
2396
  3
Shaded with edges
350
2395
  3
Shades of Gray
350
2392
  3
Sketchy
350
2393
  3
Thicken
350
238B
  3
Wireframe
350
2384
  3
X-Ray
350
2394
  0
WIPEOUTVARIABLES
  5
22DA
102
{ACAD_REACTORS
330
C
102
}
330
C
100
AcDbWipeoutVariables
 70
     1
  0
DICTIONARY
  5
59
102
{ACAD_REACTORS
330
C
102
}
330
C
100
AcDbDictionary
281
     1
  3
CANNOSCALE
350
23F9
  3
CMLEADERSTYLE
350
23F8
  3
CTABLESTYLE
350
A39
  3
DIMASSOC
350
43
  3
HIDETEXT
350
A3A
  3
OLEFRAME
350
23AC
  3
PROJECTNAME
350
B6
  0
SWR_DBCONFIG
  5
23BF
102
{ACAD_REACTORS
330
C
102
}
330
C
100
SwrConfig
  0
DIMASSOC
  5
26C6
102
{ACAD_REACTORS
330
26C5
102
}
330
26C5
100
AcDbDimAssoc
330
26C4
 90
        3
 70
     0
 71
     0
  1
AcDbOsnapPointRef
 72
    13
331
2626
 73
     2
 91
        0
 40
3.141592653589793
 10
0.0
 20
0.0
 30
2.000000000000000E+50
 75
     0
  1
AcDbOsnapPointRef
 72
     1
331
2625
 73
     2
 91
        0
 40
6.283185307179586
 10
0.0
 20
0.0
 30
2.000000000000000E+50
 75
     0
  0
DIMASSOC
  5
26E7
102
{ACAD_REACTORS
330
26E6
102
}
330
26E6
100
AcDbDimAssoc
330
26E5
 90
        3
 70
     0
 71
     0
  1
AcDbOsnapPointRef
 72
     1
331
2626
 73
     2
 91
        0
 40
4.712388980384689
 10
0.0
 20
0.0
 30
2.000000000000000E+50
 75
     0
  1
AcDbOsnapPointRef
 72
     1
331
25F5
 73
     2
 91
        1
 40
0.9999999999999998
 10
0.0
 20
0.0
 30
2.000000000000000E+50
 75
     0
  0
LAYOUT
  5
22
102
{ACAD_REACTORS
330
1A
102
}
330
1A
100
AcDbPlotSettings
  1

  2
None
  4
none_user_media
  6

 40
6.349999904632567
 41
6.349999904632567
 42
6.350006103515604
 43
6.350006103515606
 44
215.8999938964843
 45
279.3999938964843
 46
0.0
 47
67.3
 48
0.0
 49
0.0
140
0.0
141
0.0
142
1.0
143
2.653339271834874
 70
 10261
 72
     0
 73
     0
 74
     0
  7

 75
     0
 76
     0
 77
     2
 78
   300
147
1.0
148
0.0164422551733878
149
0.0106888522248596
100
AcDbLayout
  1
Model
 70
     1
 71
     0
 10
0.0
 20
0.0
 11
420.0
 21
297.0
 12
0.0
 22
0.0
 32
0.0
 14
326.398792156937
 24
-297.9905504402409
 34
0.0
 15
811.3912005970925
 25
237.9083267446312
 35
0.0
146
0.0
 13
0.0
 23
0.0
 33
0.0
 16
1.0
 26
0.0
 36
0.0
 17
0.0
 27
1.0
 37
0.0
 76
     0
330
1F
331
97
  0
LAYOUT
  5
1E
102
{ACAD_REACTORS
330
1A
102
}
330
1A
100
AcDbPlotSettings
  1

  2
Acrobat Distiller
  4

  6

 40
0.0
 41
0.0
 42
0.0
 43
0.0
 44
0.0
 45
0.0
 46
0.0
 47
0.0
 48
0.0
 49
0.0
140
0.0
141
0.0
142
1.0
143
1.0
 70
   688
 72
     0
 73
     0
 74
     5
  7

 75
    16
 76
     0
 77
     2
 78
   300
147
1.0
148
0.0
149
0.0
100
AcDbLayout
  1
布局1
 70
     1
 71
     1
 10
0.0
 20
0.0
 11
12.0
 21
9.0
 12
0.0
 22
0.0
 32
0.0
 14
0.0
 24
0.0
 34
0.0
 15
0.0
 25
0.0
 35
0.0
146
0.0
 13
0.0
 23
0.0
 33
0.0
 16
1.0
 26
0.0
 36
0.0
 17
0.0
 27
1.0
 37
0.0
 76
     0
330
73
  0
LAYOUT
  5
26
102
{ACAD_REACTORS
330
1A
102
}
330
1A
100
AcDbPlotSettings
  1

  2
Acrobat Distiller
  4

  6

 40
0.0
 41
0.0
 42
0.0
 43
0.0
 44
0.0
 45
0.0
 46
0.0
 47
0.0
 48
0.0
 49
0.0
140
0.0
141
0.0
142
1.0
143
1.0
 70
   688
 72
     0
 73
     0
 74
     5
  7

 75
    16
 76
     0
 77
     2
 78
   300
147
1.0
148
0.0
149
0.0
100
AcDbLayout
  1
布局2
 70
     1
 71
     2
 10
0.0
 20
0.0
 11
12.0
 21
9.0
 12
0.0
 22
0.0
 32
0.0
 14
0.0
 24
0.0
 34
0.0
 15
0.0
 25
0.0
 35
0.0
146
0.0
 13
0.0
 23
0.0
 33
0.0
 16
1.0
 26
0.0
 36
0.0
 17
0.0
 27
1.0
 37
0.0
 76
     0
330
23
  0
MATERIAL
  5
237C
102
{ACAD_REACTORS
330
6B
102
}
330
6B
100
AcDbMaterial
  1
ByBlock
 72
     0
 73
     2
 77
     0
 78
     2
171
     0
172
     2
175
     0
176
     2
179
     0
270
     2
274
     2
 94
      127
  0
MATERIAL
  5
237B
102
{ACAD_REACTORS
330
6B
102
}
330
6B
100
AcDbMaterial
  1
ByLayer
 72
     0
 73
     2
 77
     0
 78
     2
171
     0
172
     2
175
     0
176
     2
179
     0
270
     2
274
     2
 94
      127
  0
MATERIAL
  5
237D
102
{ACAD_REACTORS
330
6B
102
}
330
6B
100
AcDbMaterial
  1
Global
 72
     0
 73
     2
 77
     0
 78
     2
171
     0
172
     2
175
     0
176
     2
179
     0
270
     2
274
     2
 94
      127
  0
MLEADERSTYLE
  5
2398
102
{ACAD_REACTORS
330
2397
102
}
330
2397
100
AcDbMLeaderStyle
179
     2
170
     2
171
     1
172
     0
 90
        2
 40
0.0
 41
0.0
173
     1
 91
-1056964608
340
14
 92
       -2
290
     1
 42
0.4
291
     1
 43
2.0
  3
Standard
 44
0.18
300

342
11
174
     1
178
     1
175
     1
176
     0
 93
-1056964608
 45
0.2
292
     0
297
     0
 46
5.0
 94
-1056964608
 47
1.0
 49
1.0
140
1.0
293
     1
141
0.0
294
     1
177
     0
142
1.0
295
     0
296
     0
143
0.125
271
     0
272
     9
273
     9
  0
MLINESTYLE
  5
18
102
{ACAD_REACTORS
330
17
102
}
330
17
100
AcDbMlineStyle
  2
Standard
 70
     0
  3

 62
   178
420
       18
 51
90.0
 52
90.0
 71
     2
 49
0.5
 62
   256
  6
BYLAYER
 49
-0.5
 62
   256
  6
BYLAYER
  0
ACDBPLACEHOLDER
  5
F
102
{ACAD_REACTORS
330
E
102
}
330
E
  0
SCALE
  5
239A
102
{ACAD_REACTORS
330
2399
102
}
330
2399
100
AcDbScale
 70
     0
300
1:1
140
1.0
141
1.0
290
     1
  0
SCALE
  5
239B
102
{ACAD_REACTORS
330
2399
102
}
330
2399
100
AcDbScale
 70
     0
300
1:2
140
1.0
141
2.0
290
     0
  0
SCALE
  5
239C
102
{ACAD_REACTORS
330
2399
102
}
330
2399
100
AcDbScale
 70
     0
300
1:4
140
1.0
141
4.0
290
     0
  0
SCALE
  5
239D
102
{ACAD_REACTORS
330
2399
102
}
330
2399
100
AcDbScale
 70
     0
300
1:5
140
1.0
141
5.0
290
     0
  0
SCALE
  5
239E
102
{ACAD_REACTORS
330
2399
102
}
330
2399
100
AcDbScale
 70
     0
300
1:8
140
1.0
141
8.0
290
     0
  0
SCALE
  5
239F
102
{ACAD_REACTORS
330
2399
102
}
330
2399
100
AcDbScale
 70
     0
300
1:10
140
1.0
141
10.0
290
     0
  0
SCALE
  5
23A0
102
{ACAD_REACTORS
330
2399
102
}
330
2399
100
AcDbScale
 70
     0
300
1:16
140
1.0
141
16.0
290
     0
  0
SCALE
  5
23A1
102
{ACAD_REACTORS
330
2399
102
}
330
2399
100
AcDbScale
 70
     0
300
1:20
140
1.0
141
20.0
290
     0
  0
SCALE
  5
23A2
102
{ACAD_REACTORS
330
2399
102
}
330
2399
100
AcDbScale
 70
     0
300
1:30
140
1.0
141
30.0
290
     0
  0
SCALE
  5
23A3
102
{ACAD_REACTORS
330
2399
102
}
330
2399
100
AcDbScale
 70
     0
300
1:40
140
1.0
141
40.0
290
     0
  0
SCALE
  5
23A4
102
{ACAD_REACTORS
330
2399
102
}
330
2399
100
AcDbScale
 70
     0
300
1:50
140
1.0
141
50.0
290
     0
  0
SCALE
  5
23A5
102
{ACAD_REACTORS
330
2399
102
}
330
2399
100
AcDbScale
 70
     0
300
1:100
140
1.0
141
100.0
290
     0
  0
SCALE
  5
23A6
102
{ACAD_REACTORS
330
2399
102
}
330
2399
100
AcDbScale
 70
     0
300
2:1
140
2.0
141
1.0
290
     0
  0
SCALE
  5
23A7
102
{ACAD_REACTORS
330
2399
102
}
330
2399
100
AcDbScale
 70
     0
300
4:1
140
4.0
141
1.0
290
     0
  0
SCALE
  5
23A8
102
{ACAD_REACTORS
330
2399
102
}
330
2399
100
AcDbScale
 70
     0
300
8:1
140
8.0
141
1.0
290
     0
  0
SCALE
  5
23A9
102
{ACAD_REACTORS
330
2399
102
}
330
2399
100
AcDbScale
 70
     0
300
10:1
140
10.0
141
1.0
290
     0
  0
SCALE
  5
23AA
102
{ACAD_REACTORS
330
2399
102
}
330
2399
100
AcDbScale
 70
     0
300
100:1
140
100.0
141
1.0
290
     0
  0
TABLESTYLE
  5
A37
102
{ACAD_REACTORS
330
92
102
}
330
92
100
AcDbTableStyle
  3

 70
     0
 71
     0
 40
0.06
 41
0.06
280
     0
281
     0
  7

140
0.18
170
     2
 62
     0
 63
   257
283
     0
 90
      512
 91
        0
  1

274
    -2
284
     1
 64
     0
275
    -2
285
     1
 65
     0
276
    -2
286
     1
 66
     0
277
    -2
287
     1
 67
     0
278
    -2
288
     1
 68
     0
279
    -2
289
     1
 69
     0
  7

140
0.25
170
     5
 62
     0
 63
   257
283
     0
 90
      512
 91
        0
  1

274
    -2
284
     1
 64
     0
275
    -2
285
     1
 65
     0
276
    -2
286
     1
 66
     0
277
    -2
287
     1
 67
     0
278
    -2
288
     1
 68
     0
279
    -2
289
     1
 69
     0
  7

140
0.18
170
     5
 62
     0
 63
   257
283
     0
 90
      512
 91
        0
  1

274
    -2
284
     1
 64
     0
275
    -2
285
     1
 65
     0
276
    -2
286
     1
 66
     0
277
    -2
287
     1
 67
     0
278
    -2
288
     1
 68
     0
279
    -2
289
     1
 69
     0
1001
ACAD
1000
AcRTDxfName
1000
TABLESTYLE
  0
VISUALSTYLE
  5
2383
102
{ACAD_XDICTIONARY
360
282A
102
}
102
{ACAD_REACTORS
330
237E
102
}
330
237E
100
AcDbVisualStyle
  2
2dWireframe
 70
     4
177
     2
291
     0
 71
     0
176
     1
 72
     2
176
     1
 73
     0
176
     1
 90
        0
176
     1
 40
0.6
176
     1
 41
30.0
176
     1
 62
     5
 63
     7
421
 16777215
176
     1
 74
     1
176
     1
 91
        4
176
     1
 64
     7
176
     1
 65
   257
176
     1
 75
     1
176
     1
175
     1
176
     1
 42
1.0
176
     1
 92
        0
176
     1
 66
   257
176
     1
 43
1.0
176
     1
 76
     1
176
     1
 77
     6
176
     1
 78
     2
176
     1
 67
     7
176
     1
 79
     5
176
     1
170
     0
176
     1
171
     0
176
     1
290
     0
176
     1
 93
        1
176
     1
 44
0.0
176
     1
173
     0
176
     1
  0
VISUALSTYLE
  5
2386
102
{ACAD_XDICTIONARY
360
282C
102
}
102
{ACAD_REACTORS
330
237E
102
}
330
237E
100
AcDbVisualStyle
  2
Basic
 70
     7
177
     2
291
     1
 71
     1
176
     1
 72
     0
176
     1
 73
     1
176
     1
 90
        0
176
     1
 40
0.6
176
     1
 41
30.0
176
     1
 62
     5
 63
     7
421
 16777215
176
     1
 74
     0
176
     1
 91
        4
176
     1
 64
     7
176
     1
 65
   257
176
     1
 75
     1
176
     1
175
     1
176
     1
 42
1.0
176
     1
 92
        8
176
     1
 66
     7
176
     1
 43
1.0
176
     1
 76
     1
176
     1
 77
     6
176
     1
 78
     2
176
     1
 67
     7
176
     1
 79
     5
176
     1
170
     0
176
     1
171
     0
176
     1
290
     0
176
     1
 93
        1
176
     1
 44
0.0
176
     1
173
     0
176
     1
  0
VISUALSTYLE
  5
238A
102
{ACAD_XDICTIONARY
360
282E
102
}
102
{ACAD_REACTORS
330
237E
102
}
330
237E
100
AcDbVisualStyle
  2
Brighten
 70
    12
177
     2
291
     1
 71
     2
176
     1
 72
     2
176
     1
 73
     0
176
     1
 90
        0
176
     1
 40
0.6
176
     1
 41
30.0
176
     1
 62
     5
 63
     7
421
 16777215
176
     1
 74
     1
176
     1
 91
        4
176
     1
 64
     7
176
     1
 65
   257
176
     1
 75
     1
176
     1
175
     1
176
     1
 42
1.0
176
     1
 92
        8
176
     1
 66
     7
176
     1
 43
1.0
176
     1
 76
     1
176
     1
 77
     6
176
     1
 78
     2
176
     1
 67
     7
176
     1
 79
     5
176
     1
170
     0
176
     1
171
     0
176
     1
290
     0
176
     1
 93
        1
176
     1
 44
50.0
176
     1
173
     0
176
     1
  0
VISUALSTYLE
  5
238E
102
{ACAD_XDICTIONARY
360
2830
102
}
102
{ACAD_REACTORS
330
237E
102
}
330
237E
100
AcDbVisualStyle
  2
ColorChange
 70
    16
177
     2
291
     1
 71
     2
176
     1
 72
     2
176
     1
 73
     3
176
     1
 90
        0
176
     1
 40
0.6
176
     1
 41
30.0
176
     1
 62
     5
 63
     8
421
  8421504
176
     1
 74
     1
176
     1
 91
        4
176
     1
 64
     7
176
     1
 65
   257
176
     1
 75
     1
176
     1
175
     1
176
     1
 42
1.0
176
     1
 92
        8
176
     1
 66
     8
424
  8421504
176
     1
 43
1.0
176
     1
 76
     1
176
     1
 77
     6
176
     1
 78
     2
176
     1
 67
     7
176
     1
 79
     5
176
     1
170
     0
176
     1
171
     0
176
     1
290
     0
176
     1
 93
        1
176
     1
 44
0.0
176
     1
173
     0
176
     1
  0
VISUALSTYLE
  5
2388
102
{ACAD_XDICTIONARY
360
2832
102
}
102
{ACAD_REACTORS
330
237E
102
}
330
237E
100
AcDbVisualStyle
  2
Conceptual
 70
     9
177
     2
291
     0
 71
     3
176
     1
 72
     2
176
     1
 73
     0
176
     1
 90
        0
176
     1
 40
0.6
176
     1
 41
30.0
176
     1
 62
     5
 63
     7
421
 16777215
176
     1
 74
     2
176
     1
 91
        2
176
     1
 64
     7
176
     1
 65
   257
176
     1
 75
     1
176
     1
175
     1
176
     1
 42
179.0
176
     1
 92
        8
176
     1
 66
     7
176
     1
 43
1.0
176
     1
 76
     1
176
     1
 77
     6
176
     1
 78
     2
176
     1
 67
     7
176
     1
 79
     3
176
     1
170
     0
176
     1
171
     0
176
     1
290
     0
176
     1
 93
        1
176
     1
 44
0.0
176
     1
173
     0
176
     1
  0
VISUALSTYLE
  5
2389
102
{ACAD_XDICTIONARY
360
2834
102
}
102
{ACAD_REACTORS
330
237E
102
}
330
237E
100
AcDbVisualStyle
  2
Dim
 70
    11
177
     2
291
     1
 71
     2
176
     1
 72
     2
176
     1
 73
     0
176
     1
 90
        0
176
     1
 40
0.6
176
     1
 41
30.0
176
     1
 62
     5
 63
     7
421
 16777215
176
     1
 74
     1
176
     1
 91
        4
176
     1
 64
     7
176
     1
 65
   257
176
     1
 75
     1
176
     1
175
     1
176
     1
 42
1.0
176
     1
 92
        8
176
     1
 66
     7
176
     1
 43
1.0
176
     1
 76
     1
176
     1
 77
     6
176
     1
 78
     2
176
     1
 67
     7
176
     1
 79
     5
176
     1
170
     0
176
     1
171
     0
176
     1
290
     0
176
     1
 93
        1
176
     1
 44
-50.0
176
     1
173
     0
176
     1
  0
VISUALSTYLE
  5
2391
102
{ACAD_XDICTIONARY
360
2836
102
}
102
{ACAD_REACTORS
330
237E
102
}
330
237E
100
AcDbVisualStyle
  2
EdgeColorOff
 70
    22
177
     2
291
     1
 71
     2
176
     0
 72
     2
176
     0
 73
     0
176
     0
 90
        0
176
     0
 40
0.6
176
     0
 41
30.0
176
     0
 62
     5
 63
     7
421
 16777215
176
     0
 74
     1
176
     0
 91
        4
176
     0
 64
     7
176
     0
 65
   257
176
     0
 75
     1
176
     0
175
     1
176
     0
 42
1.0
176
     0
 92
        8
176
     2
 66
     7
176
     0
 43
1.0
176
     0
 76
     1
176
     0
 77
     6
176
     0
 78
     2
176
     0
 67
     7
176
     0
 79
     5
176
     0
170
     0
176
     0
171
     0
176
     0
290
     0
176
     0
 93
        1
176
     0
 44
0.0
176
     0
173
     0
176
     0
  0
VISUALSTYLE
  5
238D
102
{ACAD_XDICTIONARY
360
2838
102
}
102
{ACAD_REACTORS
330
237E
102
}
330
237E
100
AcDbVisualStyle
  2
Facepattern
 70
    15
177
     2
291
     1
 71
     2
176
     1
 72
     2
176
     1
 73
     0
176
     1
 90
        0
176
     1
 40
0.6
176
     1
 41
30.0
176
     1
 62
     5
 63
     7
421
 16777215
176
     1
 74
     1
176
     1
 91
        4
176
     1
 64
     7
176
     1
 65
   257
176
     1
 75
     1
176
     1
175
     1
176
     1
 42
1.0
176
     1
 92
        8
176
     1
 66
     7
176
     1
 43
1.0
176
     1
 76
     1
176
     1
 77
     6
176
     1
 78
     2
176
     1
 67
     7
176
     1
 79
     5
176
     1
170
     0
176
     1
171
     0
176
     1
290
     0
176
     1
 93
        1
176
     1
 44
0.0
176
     1
173
     0
176
     1
  0
VISUALSTYLE
  5
237F
102
{ACAD_XDICTIONARY
360
283A
102
}
102
{ACAD_REACTORS
330
237E
102
}
330
237E
100
AcDbVisualStyle
  2
Flat
 70
     0
177
     2
291
     1
 71
     2
176
     1
 72
     1
176
     1
 73
     1
176
     1
 90
        2
176
     1
 40
0.6
176
     1
 41
30.0
176
     1
 62
     5
 63
     7
421
 16777215
176
     1
 74
     0
176
     1
 91
        0
176
     1
 64
     7
176
     1
 65
   257
176
     1
 75
     1
176
     1
175
     1
176
     1
 42
1.0
176
     1
 92
        8
176
     1
 66
     7
176
     1
 43
1.0
176
     1
 76
     1
176
     1
 77
     6
176
     1
 78
     2
176
     1
 67
     7
176
     1
 79
     5
176
     1
170
     0
176
     1
171
     0
176
     1
290
     0
176
     1
 93
       13
176
     1
 44
0.0
176
     1
173
     0
176
     1
  0
VISUALSTYLE
  5
2380
102
{ACAD_XDICTIONARY
360
283C
102
}
102
{ACAD_REACTORS
330
237E
102
}
330
237E
100
AcDbVisualStyle
  2
FlatWithEdges
 70
     1
177
     2
291
     1
 71
     2
176
     1
 72
     1
176
     1
 73
     1
176
     1
 90
        2
176
     1
 40
0.6
176
     1
 41
30.0
176
     1
 62
     5
 63
     7
421
 16777215
176
     1
 74
     1
176
     1
 91
        0
176
     1
 64
     7
176
     1
 65
   257
176
     1
 75
     1
176
     1
175
     1
176
     1
 42
1.0
176
     1
 92
        0
176
     1
 66
   257
176
     1
 43
1.0
176
     1
 76
     1
176
     1
 77
     6
176
     1
 78
     2
176
     1
 67
     7
176
     1
 79
     5
176
     1
170
     0
176
     1
171
     0
176
     1
290
     0
176
     1
 93
       13
176
     1
 44
0.0
176
     1
173
     0
176
     1
  0
VISUALSTYLE
  5
2381
102
{ACAD_XDICTIONARY
360
283E
102
}
102
{ACAD_REACTORS
330
237E
102
}
330
237E
100
AcDbVisualStyle
  2
Gouraud
 70
     2
177
     2
291
     1
 71
     2
176
     1
 72
     2
176
     1
 73
     1
176
     1
 90
        2
176
     1
 40
0.6
176
     1
 41
30.0
176
     1
 62
     5
 63
     7
421
 16777215
176
     1
 74
     0
176
     1
 91
        0
176
     1
 64
     7
176
     1
 65
   257
176
     1
 75
     1
176
     1
175
     1
176
     1
 42
1.0
176
     1
 92
        0
176
     1
 66
     7
176
     1
 43
1.0
176
     1
 76
     1
176
     1
 77
     6
176
     1
 78
     2
176
     1
 67
     7
176
     1
 79
     5
176
     1
170
     0
176
     1
171
     0
176
     1
290
     0
176
     1
 93
       13
176
     1
 44
0.0
176
     1
173
     0
176
     1
  0
VISUALSTYLE
  5
2382
102
{ACAD_XDICTIONARY
360
2840
102
}
102
{ACAD_REACTORS
330
237E
102
}
330
237E
100
AcDbVisualStyle
  2
GouraudWithEdges
 70
     3
177
     2
291
     1
 71
     2
176
     1
 72
     2
176
     1
 73
     1
176
     1
 90
        2
176
     1
 40
0.6
176
     1
 41
30.0
176
     1
 62
     5
 63
     7
421
 16777215
176
     1
 74
     1
176
     1
 91
        0
176
     1
 64
     7
176
     1
 65
   257
176
     1
 75
     1
176
     1
175
     1
176
     1
 42
1.0
176
     1
 92
        0
176
     1
 66
   257
176
     1
 43
1.0
176
     1
 76
     1
176
     1
 77
     6
176
     1
 78
     2
176
     1
 67
     7
176
     1
 79
     5
176
     1
170
     0
176
     1
171
     0
176
     1
290
     0
176
     1
 93
       13
176
     1
 44
0.0
176
     1
173
     0
176
     1
  0
VISUALSTYLE
  5
2385
102
{ACAD_XDICTIONARY
360
2842
102
}
102
{ACAD_REACTORS
330
237E
102
}
330
237E
100
AcDbVisualStyle
  2
Hidden
 70
     6
177
     2
291
     0
 71
     1
176
     1
 72
     2
176
     1
 73
     2
176
     1
 90
        0
176
     1
 40
0.6
176
     1
 41
30.0
176
     1
 62
     5
 63
     7
421
 16777215
176
     1
 74
     2
176
     1
 91
        2
176
     1
 64
     7
176
     1
 65
   257
176
     1
 75
     2
176
     1
175
     1
176
     1
 42
40.0
176
     1
 92
        0
176
     1
 66
   257
176
     1
 43
1.0
176
     1
 76
     1
176
     1
 77
     6
176
     1
 78
     2
176
     1
 67
     7
176
     1
 79
     3
176
     1
170
     0
176
     1
171
     0
176
     1
290
     0
176
     1
 93
        1
176
     1
 44
0.0
176
     1
173
     0
176
     1
  0
VISUALSTYLE
  5
238F
102
{ACAD_XDICTIONARY
360
2844
102
}
102
{ACAD_REACTORS
330
237E
102
}
330
237E
100
AcDbVisualStyle
  2
JitterOff
 70
    20
177
     2
291
     1
 71
     2
176
     0
 72
     2
176
     0
 73
     0
176
     0
 90
        0
176
     0
 40
0.6
176
     0
 41
30.0
176
     0
 62
     5
 63
     7
421
 16777215
176
     0
 74
     1
176
     0
 91
        4
176
     0
 64
     7
176
     0
 65
   257
176
     0
 75
     1
176
     0
175
     1
176
     0
 42
1.0
176
     0
 92
       10
176
     2
 66
     7
176
     0
 43
1.0
176
     0
 76
     1
176
     0
 77
     6
176
     0
 78
     2
176
     0
 67
     7
176
     0
 79
     5
176
     0
170
     0
176
     0
171
     0
176
     0
290
     0
176
     0
 93
        1
176
     0
 44
0.0
176
     0
173
     0
176
     0
  0
VISUALSTYLE
  5
238C
102
{ACAD_XDICTIONARY
360
2846
102
}
102
{ACAD_REACTORS
330
237E
102
}
330
237E
100
AcDbVisualStyle
  2
Linepattern
 70
    14
177
     2
291
     1
 71
     2
176
     1
 72
     2
176
     1
 73
     0
176
     1
 90
        0
176
     1
 40
0.6
176
     1
 41
30.0
176
     1
 62
     5
 63
     7
421
 16777215
176
     1
 74
     1
176
     1
 91
        4
176
     1
 64
     7
176
     1
 65
   257
176
     1
 75
     7
176
     1
175
     7
176
     1
 42
1.0
176
     1
 92
        8
176
     1
 66
     7
176
     1
 43
1.0
176
     1
 76
     1
176
     1
 77
     6
176
     1
 78
     2
176
     1
 67
     7
176
     1
 79
     5
176
     1
170
     0
176
     1
171
     0
176
     1
290
     0
176
     1
 93
        1
176
     1
 44
0.0
176
     1
173
     0
176
     1
  0
VISUALSTYLE
  5
2390
102
{ACAD_XDICTIONARY
360
2848
102
}
102
{ACAD_REACTORS
330
237E
102
}
330
237E
100
AcDbVisualStyle
  2
OverhangOff
 70
    21
177
     2
291
     1
 71
     2
176
     0
 72
     2
176
     0
 73
     0
176
     0
 90
        0
176
     0
 40
0.6
176
     0
 41
30.0
176
     0
 62
     5
 63
     7
421
 16777215
176
     0
 74
     1
176
     0
 91
        4
176
     0
 64
     7
176
     0
 65
   257
176
     0
 75
     1
176
     0
175
     1
176
     0
 42
1.0
176
     0
 92
        9
176
     2
 66
     7
176
     0
 43
1.0
176
     0
 76
     1
176
     0
 77
     6
176
     0
 78
     2
176
     0
 67
     7
176
     0
 79
     5
176
     0
170
     0
176
     0
171
     0
176
     0
290
     0
176
     0
 93
        1
176
     0
 44
0.0
176
     0
173
     0
176
     0
  0
VISUALSTYLE
  5
2387
102
{ACAD_XDICTIONARY
360
284A
102
}
102
{ACAD_REACTORS
330
237E
102
}
330
237E
100
AcDbVisualStyle
  2
Realistic
 70
     8
177
     2
291
     0
 71
     2
176
     1
 72
     3
176
     1
 73
     0
176
     1
 90
        2
176
     1
 40
0.6
176
     1
 41
30.0
176
     1
 62
     5
 63
     7
421
 16777215
176
     1
 74
     0
176
     1
 91
        0
176
     1
 64
     7
176
     1
 65
   257
176
     1
 75
     1
176
     1
175
     1
176
     1
 42
1.0
176
     1
 92
        8
176
     1
 66
   257
176
     1
 43
1.0
176
     1
 76
     1
176
     1
 77
     6
176
     1
 78
     2
176
     1
 67
     7
176
     1
 79
     3
176
     1
170
     0
176
     1
171
     0
176
     1
290
     0
176
     1
 93
       13
176
     1
 44
0.0
176
     1
173
     0
176
     1
  0
VISUALSTYLE
  5
2396
102
{ACAD_XDICTIONARY
360
284C
102
}
102
{ACAD_REACTORS
330
237E
102
}
330
237E
100
AcDbVisualStyle
  2
Shaded
 70
    27
177
     2
291
     0
 71
     2
176
     1
 72
     2
176
     1
 73
     1
176
     1
 90
        2
176
     1
 40
0.6
176
     1
 41
30.0
176
     1
 62
     5
 63
     7
421
 16777215
176
     1
 74
     0
176
     1
 91
        4
176
     1
 64
     7
176
     1
 65
   257
176
     1
 75
     1
176
     1
175
     1
176
     1
 42
1.0
176
     1
 92
        8
176
     1
 66
   257
176
     1
 43
1.0
176
     1
 76
     1
176
     1
 77
     6
176
     1
 78
     2
176
     1
 67
     8
425
  7895160
176
     1
 79
     3
176
     1
170
     0
176
     1
171
     0
176
     1
290
     0
176
     1
 93
        5
176
     1
 44
0.0
176
     1
173
     0
176
     1
  0
VISUALSTYLE
  5
2395
102
{ACAD_XDICTIONARY
360
284E
102
}
102
{ACAD_REACTORS
330
237E
102
}
330
237E
100
AcDbVisualStyle
  2
Shaded with edges
 70
    26
177
     2
291
     0
 71
     2
176
     1
 72
     2
176
     1
 73
     1
176
     1
 90
        2
176
     1
 40
0.6
176
     1
 41
30.0
176
     1
 62
     5
 63
     7
421
 16777215
176
     1
 74
     1
176
     1
 91
       10
176
     1
 64
     7
176
     1
 65
   257
176
     1
 75
     2
176
     1
175
     1
176
     1
 42
1.0
176
     1
 92
        8
176
     1
 66
   257
176
     1
 43
1.0
176
     1
 76
     1
176
     1
 77
     6
176
     1
 78
     2
176
     1
 67
     7
176
     1
 79
     3
176
     1
170
     0
176
     1
171
     0
176
     1
290
     0
176
     1
 93
        5
176
     1
 44
0.0
176
     1
173
     0
176
     1
  0
VISUALSTYLE
  5
2392
102
{ACAD_XDICTIONARY
360
2850
102
}
102
{ACAD_REACTORS
330
237E
102
}
330
237E
100
AcDbVisualStyle
  2
Shades of Gray
 70
    23
177
     2
291
     0
 71
     2
176
     1
 72
     2
176
     1
 73
     3
176
     1
 90
        0
176
     1
 40
0.6
176
     1
 41
30.0
176
     1
 62
     5
 63
     7
421
 16777215
176
     1
 74
     2
176
     1
 91
        2
176
     1
 64
     7
176
     1
 65
     7
176
     1
 75
     1
176
     1
175
     1
176
     1
 42
40.0
176
     1
 92
        8
176
     1
 66
     7
176
     1
 43
1.0
176
     1
 76
     1
176
     1
 77
     6
176
     1
 78
     2
176
     1
 67
     7
176
     1
 79
     3
176
     1
170
     0
176
     1
171
     0
176
     1
290
     0
176
     1
 93
        1
176
     1
 44
0.0
176
     1
173
     0
176
     1
  0
VISUALSTYLE
  5
2393
102
{ACAD_XDICTIONARY
360
2852
102
}
102
{ACAD_REACTORS
330
237E
102
}
330
237E
100
AcDbVisualStyle
  2
Sketchy
 70
    24
177
     2
291
     0
 71
     1
176
     1
 72
     2
176
     1
 73
     2
176
     1
 90
        0
176
     1
 40
0.6
176
     1
 41
30.0
176
     1
 62
     5
 63
     7
421
 16777215
176
     1
 74
     2
176
     1
 91
        2
176
     1
 64
     7
176
     1
 65
     7
176
     1
 75
     1
176
     1
175
     1
176
     1
 42
40.0
176
     1
 92
       11
176
     1
 66
     7
176
     1
 43
1.0
176
     1
 76
     1
176
     1
 77
     6
176
     1
 78
     2
176
     1
 67
     7
176
     1
 79
     6
176
     1
170
     0
176
     1
171
     0
176
     1
290
     0
176
     1
 93
        1
176
     1
 44
0.0
176
     1
173
     0
176
     1
  0
VISUALSTYLE
  5
238B
102
{ACAD_XDICTIONARY
360
2854
102
}
102
{ACAD_REACTORS
330
237E
102
}
330
237E
100
AcDbVisualStyle
  2
Thicken
 70
    13
177
     2
291
     1
 71
     2
176
     1
 72
     2
176
     1
 73
     0
176
     1
 90
        0
176
     1
 40
0.6
176
     1
 41
30.0
176
     1
 62
     5
 63
     7
421
 16777215
176
     1
 74
     1
176
     1
 91
        4
176
     1
 64
     7
176
     1
 65
   257
176
     1
 75
     1
176
     1
175
     1
176
     1
 42
1.0
176
     1
 92
       12
176
     1
 66
     7
176
     1
 43
1.0
176
     1
 76
     1
176
     1
 77
     6
176
     1
 78
     2
176
     1
 67
     7
176
     1
 79
     5
176
     1
170
     0
176
     1
171
     0
176
     1
290
     0
176
     1
 93
        1
176
     1
 44
0.0
176
     1
173
     0
176
     1
  0
VISUALSTYLE
  5
2384
102
{ACAD_XDICTIONARY
360
2856
102
}
102
{ACAD_REACTORS
330
237E
102
}
330
237E
100
AcDbVisualStyle
  2
Wireframe
 70
     5
177
     2
291
     0
 71
     0
176
     1
 72
     2
176
     1
 73
     0
176
     1
 90
        0
176
     1
 40
0.6
176
     1
 41
30.0
176
     1
 62
     5
 63
     7
421
 16777215
176
     1
 74
     1
176
     1
 91
        4
176
     1
 64
     7
176
     1
 65
   257
176
     1
 75
     1
176
     1
175
     1
176
     1
 42
1.0
176
     1
 92
        0
176
     1
 66
   257
176
     1
 43
1.0
176
     1
 76
     1
176
     1
 77
     6
176
     1
 78
     2
176
     1
 67
     7
176
     1
 79
     3
176
     1
170
     0
176
     1
171
     0
176
     1
290
     0
176
     1
 93
        1
176
     1
 44
0.0
176
     1
173
     0
176
     1
  0
VISUALSTYLE
  5
2394
102
{ACAD_XDICTIONARY
360
2858
102
}
102
{ACAD_REACTORS
330
237E
102
}
330
237E
100
AcDbVisualStyle
  2
X-Ray
 70
    25
177
     2
291
     0
 71
     2
176
     1
 72
     2
176
     1
 73
     1
176
     1
 90
        1
176
     1
 40
0.5
176
     1
 41
30.0
176
     1
 62
     5
 63
     7
421
 16777215
176
     1
 74
     1
176
     1
 91
        0
176
     1
 64
     7
176
     1
 65
   257
176
     1
 75
     1
176
     1
175
     1
176
     1
 42
1.0
176
     1
 92
        8
176
     1
 66
     7
176
     1
 43
1.0
176
     1
 76
     1
176
     1
 77
     6
176
     1
 78
     2
176
     1
 67
     7
176
     1
 79
     3
176
     1
170
     0
176
     1
171
     0
176
     1
290
     0
176
     1
 93
       13
176
     1
 44
0.0
176
     1
173
     0
176
     1
  0
DICTIONARYVAR
  5
23F9
102
{ACAD_REACTORS
330
59
102
}
330
59
100
DictionaryVariables
280
     0
  1
1:1
  0
DICTIONARYVAR
  5
23F8
102
{ACAD_REACTORS
330
59
102
}
330
59
100
DictionaryVariables
280
     0
  1
Standard
  0
DICTIONARYVAR
  5
A39
102
{ACAD_REACTORS
330
59
102
}
330
59
100
DictionaryVariables
280
     0
  1
Standard
  0
DICTIONARYVAR
  5
43
102
{ACAD_REACTORS
330
59
102
}
330
59
100
DictionaryVariables
280
     0
  1
2
  0
DICTIONARYVAR
  5
A3A
102
{ACAD_REACTORS
330
59
102
}
330
59
100
DictionaryVariables
280
     0
  1
1
  0
DICTIONARYVAR
  5
23AC
102
{ACAD_REACTORS
330
59
102
}
330
59
100
DictionaryVariables
280
     0
  1
2
  0
DICTIONARYVAR
  5
B6
102
{ACAD_REACTORS
330
59
102
}
330
59
100
DictionaryVariables
280
     0
  1

  0
DICTIONARY
  5
282A
330
2383
100
AcDbDictionary
280
     1
281
     1
  3
ACAD_XREC_ROUNDTRIP
360
282B
  0
DICTIONARY
  5
282C
330
2386
100
AcDbDictionary
280
     1
281
     1
  3
ACAD_XREC_ROUNDTRIP
360
282D
  0
DICTIONARY
  5
282E
330
238A
100
AcDbDictionary
280
     1
281
     1
  3
ACAD_XREC_ROUNDTRIP
360
282F
  0
DICTIONARY
  5
2830
330
238E
100
AcDbDictionary
280
     1
281
     1
  3
ACAD_XREC_ROUNDTRIP
360
2831
  0
DICTIONARY
  5
2832
330
2388
100
AcDbDictionary
280
     1
281
     1
  3
ACAD_XREC_ROUNDTRIP
360
2833
  0
DICTIONARY
  5
2834
330
2389
100
AcDbDictionary
280
     1
281
     1
  3
ACAD_XREC_ROUNDTRIP
360
2835
  0
DICTIONARY
  5
2836
330
2391
100
AcDbDictionary
280
     1
281
     1
  3
ACAD_XREC_ROUNDTRIP
360
2837
  0
DICTIONARY
  5
2838
330
238D
100
AcDbDictionary
280
     1
281
     1
  3
ACAD_XREC_ROUNDTRIP
360
2839
  0
DICTIONARY
  5
283A
330
237F
100
AcDbDictionary
280
     1
281
     1
  3
ACAD_XREC_ROUNDTRIP
360
283B
  0
DICTIONARY
  5
283C
330
2380
100
AcDbDictionary
280
     1
281
     1
  3
ACAD_XREC_ROUNDTRIP
360
283D
  0
DICTIONARY
  5
283E
330
2381
100
AcDbDictionary
280
     1
281
     1
  3
ACAD_XREC_ROUNDTRIP
360
283F
  0
DICTIONARY
  5
2840
330
2382
100
AcDbDictionary
280
     1
281
     1
  3
ACAD_XREC_ROUNDTRIP
360
2841
  0
DICTIONARY
  5
2842
330
2385
100
AcDbDictionary
280
     1
281
     1
  3
ACAD_XREC_ROUNDTRIP
360
2843
  0
DICTIONARY
  5
2844
330
238F
100
AcDbDictionary
280
     1
281
     1
  3
ACAD_XREC_ROUNDTRIP
360
2845
  0
DICTIONARY
  5
2846
330
238C
100
AcDbDictionary
280
     1
281
     1
  3
ACAD_XREC_ROUNDTRIP
360
2847
  0
DICTIONARY
  5
2848
330
2390
100
AcDbDictionary
280
     1
281
     1
  3
ACAD_XREC_ROUNDTRIP
360
2849
  0
DICTIONARY
  5
284A
330
2387
100
AcDbDictionary
280
     1
281
     1
  3
ACAD_XREC_ROUNDTRIP
360
284B
  0
DICTIONARY
  5
284C
330
2396
100
AcDbDictionary
280
     1
281
     1
  3
ACAD_XREC_ROUNDTRIP
360
284D
  0
DICTIONARY
  5
284E
330
2395
100
AcDbDictionary
280
     1
281
     1
  3
ACAD_XREC_ROUNDTRIP
360
284F
  0
DICTIONARY
  5
2850
330
2392
100
AcDbDictionary
280
     1
281
     1
  3
ACAD_XREC_ROUNDTRIP
360
2851
  0
DICTIONARY
  5
2852
330
2393
100
AcDbDictionary
280
     1
281
     1
  3
ACAD_XREC_ROUNDTRIP
360
2853
  0
DICTIONARY
  5
2854
330
238B
100
AcDbDictionary
280
     1
281
     1
  3
ACAD_XREC_ROUNDTRIP
360
2855
  0
DICTIONARY
  5
2856
330
2384
100
AcDbDictionary
280
     1
281
     1
  3
ACAD_XREC_ROUNDTRIP
360
2857
  0
DICTIONARY
  5
2858
330
2394
100
AcDbDictionary
280
     1
281
     1
  3
ACAD_XREC_ROUNDTRIP
360
2859
  0
XRECORD
  5
282B
102
{ACAD_REACTORS
330
282A
102
}
330
282A
100
AcDbXrecord
280
     1
102
RTVSPost2010Prop28
280
     1
102
RTVSPost2010PropOp28
 70
     1
102
RTVSPost2010Prop29
280
     1
102
RTVSPost2010PropOp29
 70
     1
102
RTVSPost2010Prop30
280
     0
102
RTVSPost2010PropOp30
 70
     1
102
RTVSPost2010Prop31
280
     0
102
RTVSPost2010PropOp31
 70
     1
102
RTVSPost2010Prop32
280
     0
102
RTVSPost2010PropOp32
 70
     1
102
RTVSPost2010Prop33
280
     0
102
RTVSPost2010PropOp33
 70
     1
102
RTVSPost2010Prop34
280
     0
102
RTVSPost2010PropOp34
 70
     1
102
RTVSPost2010Prop35
280
     0
102
RTVSPost2010PropOp35
 70
     1
102
RTVSPost2010Prop36
280
     0
102
RTVSPost2010PropOp36
 70
     1
102
RTVSPost2010Prop37
 90
       50
102
RTVSPost2010PropOp37
 70
     1
102
RTVSPost2010Prop38
140
0.0
102
RTVSPost2010PropOp38
 70
     1
102
RTVSPost2010Prop39
140
1.0
102
RTVSPost2010PropOp39
 70
     1
102
RTVSPost2010Prop40
 90
        0
102
RTVSPost2010PropOp40
 70
     1
102
RTVSPost2010Prop41ColorIndex
 90
       18
102
RTVSPost2010Prop41ColorRGB
 90
        0
102
RTVSPost2010PropOp41
 70
     1
102
RTVSPost2010Prop42
 90
       50
102
RTVSPost2010PropOp42
 70
     1
102
RTVSPost2010Prop43
 90
        3
102
RTVSPost2010PropOp43
 70
     1
102
RTVSPost2010Prop44ColorIndex
 90
        5
102
RTVSPost2010Prop44ColorRGB
 90
      255
102
RTVSPost2010PropOp44
 70
     1
102
RTVSPost2010Prop45
280
     0
102
RTVSPost2010PropOp45
 70
     1
102
RTVSPost2010Prop46
 90
       50
102
RTVSPost2010PropOp46
 70
     1
102
RTVSPost2010Prop47
 90
       50
102
RTVSPost2010PropOp47
 70
     1
102
RTVSPost2010Prop48
 90
       50
102
RTVSPost2010PropOp48
 70
     1
102
RTVSPost2010Prop49
280
     0
102
RTVSPost2010PropOp49
 70
     1
102
RTVSPost2010Prop50
 90
       50
102
RTVSPost2010PropOp50
 70
     1
102
RTVSPost2010Prop51ColorIndex
 90
      256
102
RTVSPost2010Prop51ColorRGB
 90
-16777216
102
RTVSPost2010PropOp51
 70
     0
102
RTVSPost2010Prop52
140
1.0
102
RTVSPost2010PropOp52
 70
     0
102
RTVSPost2010Prop53
 90
        2
102
RTVSPost2010PropOp53
 70
     1
102
RTVSPost2010Prop54
  1
strokes_ogs.tif
102
RTVSPost2010PropOp54
 70
     1
102
RTVSPost2010Prop55
280
     0
102
RTVSPost2010PropOp55
 70
     1
102
RTVSPost2010Prop56
140
1.0
102
RTVSPost2010PropOp56
 70
     1
102
RTVSPost2010Prop57
140
1.0
102
RTVSPost2010PropOp57
 70
     1
  0
XRECORD
  5
282D
102
{ACAD_REACTORS
330
282C
102
}
330
282C
100
AcDbXrecord
280
     1
102
RTVSPost2010Prop28
280
     0
102
RTVSPost2010PropOp28
 70
     1
102
RTVSPost2010Prop29
280
     1
102
RTVSPost2010PropOp29
 70
     1
102
RTVSPost2010Prop30
280
     1
102
RTVSPost2010PropOp30
 70
     1
102
RTVSPost2010Prop31
280
     0
102
RTVSPost2010PropOp31
 70
     1
102
RTVSPost2010Prop32
280
     0
102
RTVSPost2010PropOp32
 70
     1
102
RTVSPost2010Prop33
280
     0
102
RTVSPost2010PropOp33
 70
     1
102
RTVSPost2010Prop34
280
     0
102
RTVSPost2010PropOp34
 70
     1
102
RTVSPost2010Prop35
280
     0
102
RTVSPost2010PropOp35
 70
     1
102
RTVSPost2010Prop36
280
     0
102
RTVSPost2010PropOp36
 70
     1
102
RTVSPost2010Prop37
 90
       50
102
RTVSPost2010PropOp37
 70
     1
102
RTVSPost2010Prop38
140
0.0
102
RTVSPost2010PropOp38
 70
     1
102
RTVSPost2010Prop39
140
1.0
102
RTVSPost2010PropOp39
 70
     1
102
RTVSPost2010Prop40
 90
        0
102
RTVSPost2010PropOp40
 70
     1
102
RTVSPost2010Prop41ColorIndex
 90
       18
102
RTVSPost2010Prop41ColorRGB
 90
        0
102
RTVSPost2010PropOp41
 70
     1
102
RTVSPost2010Prop42
 90
       50
102
RTVSPost2010PropOp42
 70
     1
102
RTVSPost2010Prop43
 90
        3
102
RTVSPost2010PropOp43
 70
     1
102
RTVSPost2010Prop44ColorIndex
 90
        5
102
RTVSPost2010Prop44ColorRGB
 90
      255
102
RTVSPost2010PropOp44
 70
     1
102
RTVSPost2010Prop45
280
     0
102
RTVSPost2010PropOp45
 70
     1
102
RTVSPost2010Prop46
 90
       50
102
RTVSPost2010PropOp46
 70
     1
102
RTVSPost2010Prop47
 90
       50
102
RTVSPost2010PropOp47
 70
     1
102
RTVSPost2010Prop48
 90
       50
102
RTVSPost2010PropOp48
 70
     1
102
RTVSPost2010Prop49
280
     0
102
RTVSPost2010PropOp49
 70
     1
102
RTVSPost2010Prop50
 90
       50
102
RTVSPost2010PropOp50
 70
     1
102
RTVSPost2010Prop51ColorIndex
 90
      256
102
RTVSPost2010Prop51ColorRGB
 90
-16777216
102
RTVSPost2010PropOp51
 70
     0
102
RTVSPost2010Prop52
140
1.0
102
RTVSPost2010PropOp52
 70
     0
102
RTVSPost2010Prop53
 90
        2
102
RTVSPost2010PropOp53
 70
     1
102
RTVSPost2010Prop54
  1
strokes_ogs.tif
102
RTVSPost2010PropOp54
 70
     1
102
RTVSPost2010Prop55
280
     0
102
RTVSPost2010PropOp55
 70
     1
102
RTVSPost2010Prop56
140
1.0
102
RTVSPost2010PropOp56
 70
     1
102
RTVSPost2010Prop57
140
1.0
102
RTVSPost2010PropOp57
 70
     1
  0
XRECORD
  5
282F
102
{ACAD_REACTORS
330
282E
102
}
330
282E
100
AcDbXrecord
280
     1
102
RTVSPost2010Prop28
280
     0
102
RTVSPost2010PropOp28
 70
     1
102
RTVSPost2010Prop29
280
     1
102
RTVSPost2010PropOp29
 70
     1
102
RTVSPost2010Prop30
280
     1
102
RTVSPost2010PropOp30
 70
     1
102
RTVSPost2010Prop31
280
     0
102
RTVSPost2010PropOp31
 70
     1
102
RTVSPost2010Prop32
280
     0
102
RTVSPost2010PropOp32
 70
     1
102
RTVSPost2010Prop33
280
     0
102
RTVSPost2010PropOp33
 70
     1
102
RTVSPost2010Prop34
280
     0
102
RTVSPost2010PropOp34
 70
     1
102
RTVSPost2010Prop35
280
     0
102
RTVSPost2010PropOp35
 70
     1
102
RTVSPost2010Prop36
280
     0
102
RTVSPost2010PropOp36
 70
     1
102
RTVSPost2010Prop37
 90
       50
102
RTVSPost2010PropOp37
 70
     1
102
RTVSPost2010Prop38
140
0.0
102
RTVSPost2010PropOp38
 70
     1
102
RTVSPost2010Prop39
140
1.0
102
RTVSPost2010PropOp39
 70
     1
102
RTVSPost2010Prop40
 90
        0
102
RTVSPost2010PropOp40
 70
     1
102
RTVSPost2010Prop41ColorIndex
 90
       18
102
RTVSPost2010Prop41ColorRGB
 90
        0
102
RTVSPost2010PropOp41
 70
     1
102
RTVSPost2010Prop42
 90
       50
102
RTVSPost2010PropOp42
 70
     1
102
RTVSPost2010Prop43
 90
        3
102
RTVSPost2010PropOp43
 70
     1
102
RTVSPost2010Prop44ColorIndex
 90
        5
102
RTVSPost2010Prop44ColorRGB
 90
      255
102
RTVSPost2010PropOp44
 70
     1
102
RTVSPost2010Prop45
280
     0
102
RTVSPost2010PropOp45
 70
     1
102
RTVSPost2010Prop46
 90
       50
102
RTVSPost2010PropOp46
 70
     1
102
RTVSPost2010Prop47
 90
       50
102
RTVSPost2010PropOp47
 70
     1
102
RTVSPost2010Prop48
 90
       50
102
RTVSPost2010PropOp48
 70
     1
102
RTVSPost2010Prop49
280
     0
102
RTVSPost2010PropOp49
 70
     1
102
RTVSPost2010Prop50
 90
       50
102
RTVSPost2010PropOp50
 70
     1
102
RTVSPost2010Prop51ColorIndex
 90
      256
102
RTVSPost2010Prop51ColorRGB
 90
-16777216
102
RTVSPost2010PropOp51
 70
     0
102
RTVSPost2010Prop52
140
1.0
102
RTVSPost2010PropOp52
 70
     0
102
RTVSPost2010Prop53
 90
        2
102
RTVSPost2010PropOp53
 70
     1
102
RTVSPost2010Prop54
  1
strokes_ogs.tif
102
RTVSPost2010PropOp54
 70
     1
102
RTVSPost2010Prop55
280
     0
102
RTVSPost2010PropOp55
 70
     1
102
RTVSPost2010Prop56
140
1.0
102
RTVSPost2010PropOp56
 70
     1
102
RTVSPost2010Prop57
140
1.0
102
RTVSPost2010PropOp57
 70
     1
  0
XRECORD
  5
2831
102
{ACAD_REACTORS
330
2830
102
}
330
2830
100
AcDbXrecord
280
     1
102
RTVSPost2010Prop28
280
     0
102
RTVSPost2010PropOp28
 70
     1
102
RTVSPost2010Prop29
280
     1
102
RTVSPost2010PropOp29
 70
     1
102
RTVSPost2010Prop30
280
     1
102
RTVSPost2010PropOp30
 70
     1
102
RTVSPost2010Prop31
280
     0
102
RTVSPost2010PropOp31
 70
     1
102
RTVSPost2010Prop32
280
     0
102
RTVSPost2010PropOp32
 70
     1
102
RTVSPost2010Prop33
280
     0
102
RTVSPost2010PropOp33
 70
     1
102
RTVSPost2010Prop34
280
     0
102
RTVSPost2010PropOp34
 70
     1
102
RTVSPost2010Prop35
280
     0
102
RTVSPost2010PropOp35
 70
     1
102
RTVSPost2010Prop36
280
     0
102
RTVSPost2010PropOp36
 70
     1
102
RTVSPost2010Prop37
 90
       50
102
RTVSPost2010PropOp37
 70
     1
102
RTVSPost2010Prop38
140
0.0
102
RTVSPost2010PropOp38
 70
     1
102
RTVSPost2010Prop39
140
1.0
102
RTVSPost2010PropOp39
 70
     1
102
RTVSPost2010Prop40
 90
        0
102
RTVSPost2010PropOp40
 70
     1
102
RTVSPost2010Prop41ColorIndex
 90
       18
102
RTVSPost2010Prop41ColorRGB
 90
        0
102
RTVSPost2010PropOp41
 70
     1
102
RTVSPost2010Prop42
 90
       50
102
RTVSPost2010PropOp42
 70
     1
102
RTVSPost2010Prop43
 90
        3
102
RTVSPost2010PropOp43
 70
     1
102
RTVSPost2010Prop44ColorIndex
 90
        5
102
RTVSPost2010Prop44ColorRGB
 90
      255
102
RTVSPost2010PropOp44
 70
     1
102
RTVSPost2010Prop45
280
     0
102
RTVSPost2010PropOp45
 70
     1
102
RTVSPost2010Prop46
 90
       50
102
RTVSPost2010PropOp46
 70
     1
102
RTVSPost2010Prop47
 90
       50
102
RTVSPost2010PropOp47
 70
     1
102
RTVSPost2010Prop48
 90
       50
102
RTVSPost2010PropOp48
 70
     1
102
RTVSPost2010Prop49
280
     0
102
RTVSPost2010PropOp49
 70
     1
102
RTVSPost2010Prop50
 90
       50
102
RTVSPost2010PropOp50
 70
     1
102
RTVSPost2010Prop51ColorIndex
 90
      256
102
RTVSPost2010Prop51ColorRGB
 90
-16777216
102
RTVSPost2010PropOp51
 70
     0
102
RTVSPost2010Prop52
140
1.0
102
RTVSPost2010PropOp52
 70
     0
102
RTVSPost2010Prop53
 90
        2
102
RTVSPost2010PropOp53
 70
     1
102
RTVSPost2010Prop54
  1
strokes_ogs.tif
102
RTVSPost2010PropOp54
 70
     1
102
RTVSPost2010Prop55
280
     0
102
RTVSPost2010PropOp55
 70
     1
102
RTVSPost2010Prop56
140
1.0
102
RTVSPost2010PropOp56
 70
     1
102
RTVSPost2010Prop57
140
1.0
102
RTVSPost2010PropOp57
 70
     1
  0
XRECORD
  5
2833
102
{ACAD_REACTORS
330
2832
102
}
330
2832
100
AcDbXrecord
280
     1
102
RTVSPost2010Prop28
280
     0
102
RTVSPost2010PropOp28
 70
     1
102
RTVSPost2010Prop29
280
     1
102
RTVSPost2010PropOp29
 70
     1
102
RTVSPost2010Prop30
280
     1
102
RTVSPost2010PropOp30
 70
     1
102
RTVSPost2010Prop31
280
     0
102
RTVSPost2010PropOp31
 70
     1
102
RTVSPost2010Prop32
280
     0
102
RTVSPost2010PropOp32
 70
     1
102
RTVSPost2010Prop33
280
     0
102
RTVSPost2010PropOp33
 70
     1
102
RTVSPost2010Prop34
280
     0
102
RTVSPost2010PropOp34
 70
     1
102
RTVSPost2010Prop35
280
     0
102
RTVSPost2010PropOp35
 70
     1
102
RTVSPost2010Prop36
280
     0
102
RTVSPost2010PropOp36
 70
     1
102
RTVSPost2010Prop37
 90
       50
102
RTVSPost2010PropOp37
 70
     1
102
RTVSPost2010Prop38
140
0.0
102
RTVSPost2010PropOp38
 70
     1
102
RTVSPost2010Prop39
140
1.0
102
RTVSPost2010PropOp39
 70
     1
102
RTVSPost2010Prop40
 90
        0
102
RTVSPost2010PropOp40
 70
     1
102
RTVSPost2010Prop41ColorIndex
 90
       18
102
RTVSPost2010Prop41ColorRGB
 90
        0
102
RTVSPost2010PropOp41
 70
     1
102
RTVSPost2010Prop42
 90
       50
102
RTVSPost2010PropOp42
 70
     1
102
RTVSPost2010Prop43
 90
        3
102
RTVSPost2010PropOp43
 70
     1
102
RTVSPost2010Prop44ColorIndex
 90
        5
102
RTVSPost2010Prop44ColorRGB
 90
      255
102
RTVSPost2010PropOp44
 70
     1
102
RTVSPost2010Prop45
280
     0
102
RTVSPost2010PropOp45
 70
     1
102
RTVSPost2010Prop46
 90
       50
102
RTVSPost2010PropOp46
 70
     1
102
RTVSPost2010Prop47
 90
       50
102
RTVSPost2010PropOp47
 70
     1
102
RTVSPost2010Prop48
 90
       50
102
RTVSPost2010PropOp48
 70
     1
102
RTVSPost2010Prop49
280
     0
102
RTVSPost2010PropOp49
 70
     1
102
RTVSPost2010Prop50
 90
       50
102
RTVSPost2010PropOp50
 70
     1
102
RTVSPost2010Prop51ColorIndex
 90
      256
102
RTVSPost2010Prop51ColorRGB
 90
-16777216
102
RTVSPost2010PropOp51
 70
     0
102
RTVSPost2010Prop52
140
1.0
102
RTVSPost2010PropOp52
 70
     0
102
RTVSPost2010Prop53
 90
        2
102
RTVSPost2010PropOp53
 70
     1
102
RTVSPost2010Prop54
  1
strokes_ogs.tif
102
RTVSPost2010PropOp54
 70
     1
102
RTVSPost2010Prop55
280
     0
102
RTVSPost2010PropOp55
 70
     1
102
RTVSPost2010Prop56
140
1.0
102
RTVSPost2010PropOp56
 70
     1
102
RTVSPost2010Prop57
140
1.0
102
RTVSPost2010PropOp57
 70
     1
  0
XRECORD
  5
2835
102
{ACAD_REACTORS
330
2834
102
}
330
2834
100
AcDbXrecord
280
     1
102
RTVSPost2010Prop28
280
     0
102
RTVSPost2010PropOp28
 70
     1
102
RTVSPost2010Prop29
280
     1
102
RTVSPost2010PropOp29
 70
     1
102
RTVSPost2010Prop30
280
     1
102
RTVSPost2010PropOp30
 70
     1
102
RTVSPost2010Prop31
280
     0
102
RTVSPost2010PropOp31
 70
     1
102
RTVSPost2010Prop32
280
     0
102
RTVSPost2010PropOp32
 70
     1
102
RTVSPost2010Prop33
280
     0
102
RTVSPost2010PropOp33
 70
     1
102
RTVSPost2010Prop34
280
     0
102
RTVSPost2010PropOp34
 70
     1
102
RTVSPost2010Prop35
280
     0
102
RTVSPost2010PropOp35
 70
     1
102
RTVSPost2010Prop36
280
     0
102
RTVSPost2010PropOp36
 70
     1
102
RTVSPost2010Prop37
 90
       50
102
RTVSPost2010PropOp37
 70
     1
102
RTVSPost2010Prop38
140
0.0
102
RTVSPost2010PropOp38
 70
     1
102
RTVSPost2010Prop39
140
1.0
102
RTVSPost2010PropOp39
 70
     1
102
RTVSPost2010Prop40
 90
        0
102
RTVSPost2010PropOp40
 70
     1
102
RTVSPost2010Prop41ColorIndex
 90
       18
102
RTVSPost2010Prop41ColorRGB
 90
        0
102
RTVSPost2010PropOp41
 70
     1
102
RTVSPost2010Prop42
 90
       50
102
RTVSPost2010PropOp42
 70
     1
102
RTVSPost2010Prop43
 90
        3
102
RTVSPost2010PropOp43
 70
     1
102
RTVSPost2010Prop44ColorIndex
 90
        5
102
RTVSPost2010Prop44ColorRGB
 90
      255
102
RTVSPost2010PropOp44
 70
     1
102
RTVSPost2010Prop45
280
     0
102
RTVSPost2010PropOp45
 70
     1
102
RTVSPost2010Prop46
 90
       50
102
RTVSPost2010PropOp46
 70
     1
102
RTVSPost2010Prop47
 90
       50
102
RTVSPost2010PropOp47
 70
     1
102
RTVSPost2010Prop48
 90
       50
102
RTVSPost2010PropOp48
 70
     1
102
RTVSPost2010Prop49
280
     0
102
RTVSPost2010PropOp49
 70
     1
102
RTVSPost2010Prop50
 90
       50
102
RTVSPost2010PropOp50
 70
     1
102
RTVSPost2010Prop51ColorIndex
 90
      256
102
RTVSPost2010Prop51ColorRGB
 90
-16777216
102
RTVSPost2010PropOp51
 70
     0
102
RTVSPost2010Prop52
140
1.0
102
RTVSPost2010PropOp52
 70
     0
102
RTVSPost2010Prop53
 90
        2
102
RTVSPost2010PropOp53
 70
     1
102
RTVSPost2010Prop54
  1
strokes_ogs.tif
102
RTVSPost2010PropOp54
 70
     1
102
RTVSPost2010Prop55
280
     0
102
RTVSPost2010PropOp55
 70
     1
102
RTVSPost2010Prop56
140
1.0
102
RTVSPost2010PropOp56
 70
     1
102
RTVSPost2010Prop57
140
1.0
102
RTVSPost2010PropOp57
 70
     1
  0
XRECORD
  5
2837
102
{ACAD_REACTORS
330
2836
102
}
330
2836
100
AcDbXrecord
280
     1
102
RTVSPost2010Prop28
280
     0
102
RTVSPost2010PropOp28
 70
     0
102
RTVSPost2010Prop29
280
     1
102
RTVSPost2010PropOp29
 70
     0
102
RTVSPost2010Prop30
280
     1
102
RTVSPost2010PropOp30
 70
     0
102
RTVSPost2010Prop31
280
     0
102
RTVSPost2010PropOp31
 70
     0
102
RTVSPost2010Prop32
280
     0
102
RTVSPost2010PropOp32
 70
     0
102
RTVSPost2010Prop33
280
     0
102
RTVSPost2010PropOp33
 70
     0
102
RTVSPost2010Prop34
280
     0
102
RTVSPost2010PropOp34
 70
     0
102
RTVSPost2010Prop35
280
     0
102
RTVSPost2010PropOp35
 70
     0
102
RTVSPost2010Prop36
280
     0
102
RTVSPost2010PropOp36
 70
     0
102
RTVSPost2010Prop37
 90
       50
102
RTVSPost2010PropOp37
 70
     0
102
RTVSPost2010Prop38
140
0.0
102
RTVSPost2010PropOp38
 70
     0
102
RTVSPost2010Prop39
140
1.0
102
RTVSPost2010PropOp39
 70
     0
102
RTVSPost2010Prop40
 90
        0
102
RTVSPost2010PropOp40
 70
     0
102
RTVSPost2010Prop41ColorIndex
 90
       18
102
RTVSPost2010Prop41ColorRGB
 90
        0
102
RTVSPost2010PropOp41
 70
     0
102
RTVSPost2010Prop42
 90
       50
102
RTVSPost2010PropOp42
 70
     0
102
RTVSPost2010Prop43
 90
        3
102
RTVSPost2010PropOp43
 70
     0
102
RTVSPost2010Prop44ColorIndex
 90
        5
102
RTVSPost2010Prop44ColorRGB
 90
      255
102
RTVSPost2010PropOp44
 70
     0
102
RTVSPost2010Prop45
280
     0
102
RTVSPost2010PropOp45
 70
     0
102
RTVSPost2010Prop46
 90
       50
102
RTVSPost2010PropOp46
 70
     0
102
RTVSPost2010Prop47
 90
       50
102
RTVSPost2010PropOp47
 70
     0
102
RTVSPost2010Prop48
 90
       50
102
RTVSPost2010PropOp48
 70
     0
102
RTVSPost2010Prop49
280
     0
102
RTVSPost2010PropOp49
 70
     0
102
RTVSPost2010Prop50
 90
       50
102
RTVSPost2010PropOp50
 70
     0
102
RTVSPost2010Prop51ColorIndex
 90
      256
102
RTVSPost2010Prop51ColorRGB
 90
-16777216
102
RTVSPost2010PropOp51
 70
     0
102
RTVSPost2010Prop52
140
1.0
102
RTVSPost2010PropOp52
 70
     0
102
RTVSPost2010Prop53
 90
        2
102
RTVSPost2010PropOp53
 70
     0
102
RTVSPost2010Prop54
  1
strokes_ogs.tif
102
RTVSPost2010PropOp54
 70
     0
102
RTVSPost2010Prop55
280
     0
102
RTVSPost2010PropOp55
 70
     0
102
RTVSPost2010Prop56
140
1.0
102
RTVSPost2010PropOp56
 70
     0
102
RTVSPost2010Prop57
140
1.0
102
RTVSPost2010PropOp57
 70
     0
  0
XRECORD
  5
2839
102
{ACAD_REACTORS
330
2838
102
}
330
2838
100
AcDbXrecord
280
     1
102
RTVSPost2010Prop28
280
     0
102
RTVSPost2010PropOp28
 70
     1
102
RTVSPost2010Prop29
280
     1
102
RTVSPost2010PropOp29
 70
     1
102
RTVSPost2010Prop30
280
     1
102
RTVSPost2010PropOp30
 70
     1
102
RTVSPost2010Prop31
280
     0
102
RTVSPost2010PropOp31
 70
     1
102
RTVSPost2010Prop32
280
     0
102
RTVSPost2010PropOp32
 70
     1
102
RTVSPost2010Prop33
280
     0
102
RTVSPost2010PropOp33
 70
     1
102
RTVSPost2010Prop34
280
     0
102
RTVSPost2010PropOp34
 70
     1
102
RTVSPost2010Prop35
280
     0
102
RTVSPost2010PropOp35
 70
     1
102
RTVSPost2010Prop36
280
     0
102
RTVSPost2010PropOp36
 70
     1
102
RTVSPost2010Prop37
 90
       50
102
RTVSPost2010PropOp37
 70
     1
102
RTVSPost2010Prop38
140
0.0
102
RTVSPost2010PropOp38
 70
     1
102
RTVSPost2010Prop39
140
1.0
102
RTVSPost2010PropOp39
 70
     1
102
RTVSPost2010Prop40
 90
        0
102
RTVSPost2010PropOp40
 70
     1
102
RTVSPost2010Prop41ColorIndex
 90
       18
102
RTVSPost2010Prop41ColorRGB
 90
        0
102
RTVSPost2010PropOp41
 70
     1
102
RTVSPost2010Prop42
 90
       50
102
RTVSPost2010PropOp42
 70
     1
102
RTVSPost2010Prop43
 90
        3
102
RTVSPost2010PropOp43
 70
     1
102
RTVSPost2010Prop44ColorIndex
 90
        5
102
RTVSPost2010Prop44ColorRGB
 90
      255
102
RTVSPost2010PropOp44
 70
     1
102
RTVSPost2010Prop45
280
     0
102
RTVSPost2010PropOp45
 70
     1
102
RTVSPost2010Prop46
 90
       50
102
RTVSPost2010PropOp46
 70
     1
102
RTVSPost2010Prop47
 90
       50
102
RTVSPost2010PropOp47
 70
     1
102
RTVSPost2010Prop48
 90
       50
102
RTVSPost2010PropOp48
 70
     1
102
RTVSPost2010Prop49
280
     0
102
RTVSPost2010PropOp49
 70
     1
102
RTVSPost2010Prop50
 90
       50
102
RTVSPost2010PropOp50
 70
     1
102
RTVSPost2010Prop51ColorIndex
 90
      256
102
RTVSPost2010Prop51ColorRGB
 90
-16777216
102
RTVSPost2010PropOp51
 70
     0
102
RTVSPost2010Prop52
140
1.0
102
RTVSPost2010PropOp52
 70
     0
102
RTVSPost2010Prop53
 90
        2
102
RTVSPost2010PropOp53
 70
     1
102
RTVSPost2010Prop54
  1
strokes_ogs.tif
102
RTVSPost2010PropOp54
 70
     1
102
RTVSPost2010Prop55
280
     0
102
RTVSPost2010PropOp55
 70
     1
102
RTVSPost2010Prop56
140
1.0
102
RTVSPost2010PropOp56
 70
     1
102
RTVSPost2010Prop57
140
1.0
102
RTVSPost2010PropOp57
 70
     1
  0
XRECORD
  5
283B
102
{ACAD_REACTORS
330
283A
102
}
330
283A
100
AcDbXrecord
280
     1
102
RTVSPost2010Prop28
280
     0
102
RTVSPost2010PropOp28
 70
     1
102
RTVSPost2010Prop29
280
     1
102
RTVSPost2010PropOp29
 70
     1
102
RTVSPost2010Prop30
280
     1
102
RTVSPost2010PropOp30
 70
     1
102
RTVSPost2010Prop31
280
     0
102
RTVSPost2010PropOp31
 70
     1
102
RTVSPost2010Prop32
280
     0
102
RTVSPost2010PropOp32
 70
     1
102
RTVSPost2010Prop33
280
     0
102
RTVSPost2010PropOp33
 70
     1
102
RTVSPost2010Prop34
280
     0
102
RTVSPost2010PropOp34
 70
     1
102
RTVSPost2010Prop35
280
     0
102
RTVSPost2010PropOp35
 70
     1
102
RTVSPost2010Prop36
280
     0
102
RTVSPost2010PropOp36
 70
     1
102
RTVSPost2010Prop37
 90
       50
102
RTVSPost2010PropOp37
 70
     1
102
RTVSPost2010Prop38
140
0.0
102
RTVSPost2010PropOp38
 70
     1
102
RTVSPost2010Prop39
140
1.0
102
RTVSPost2010PropOp39
 70
     1
102
RTVSPost2010Prop40
 90
        0
102
RTVSPost2010PropOp40
 70
     1
102
RTVSPost2010Prop41ColorIndex
 90
       18
102
RTVSPost2010Prop41ColorRGB
 90
        0
102
RTVSPost2010PropOp41
 70
     1
102
RTVSPost2010Prop42
 90
       50
102
RTVSPost2010PropOp42
 70
     1
102
RTVSPost2010Prop43
 90
        3
102
RTVSPost2010PropOp43
 70
     1
102
RTVSPost2010Prop44ColorIndex
 90
        5
102
RTVSPost2010Prop44ColorRGB
 90
      255
102
RTVSPost2010PropOp44
 70
     1
102
RTVSPost2010Prop45
280
     0
102
RTVSPost2010PropOp45
 70
     1
102
RTVSPost2010Prop46
 90
       50
102
RTVSPost2010PropOp46
 70
     1
102
RTVSPost2010Prop47
 90
       50
102
RTVSPost2010PropOp47
 70
     1
102
RTVSPost2010Prop48
 90
       50
102
RTVSPost2010PropOp48
 70
     1
102
RTVSPost2010Prop49
280
     0
102
RTVSPost2010PropOp49
 70
     1
102
RTVSPost2010Prop50
 90
       50
102
RTVSPost2010PropOp50
 70
     1
102
RTVSPost2010Prop51ColorIndex
 90
      256
102
RTVSPost2010Prop51ColorRGB
 90
-16777216
102
RTVSPost2010PropOp51
 70
     0
102
RTVSPost2010Prop52
140
1.0
102
RTVSPost2010PropOp52
 70
     0
102
RTVSPost2010Prop53
 90
        2
102
RTVSPost2010PropOp53
 70
     1
102
RTVSPost2010Prop54
  1
strokes_ogs.tif
102
RTVSPost2010PropOp54
 70
     1
102
RTVSPost2010Prop55
280
     0
102
RTVSPost2010PropOp55
 70
     1
102
RTVSPost2010Prop56
140
1.0
102
RTVSPost2010PropOp56
 70
     1
102
RTVSPost2010Prop57
140
1.0
102
RTVSPost2010PropOp57
 70
     1
  0
XRECORD
  5
283D
102
{ACAD_REACTORS
330
283C
102
}
330
283C
100
AcDbXrecord
280
     1
102
RTVSPost2010Prop28
280
     0
102
RTVSPost2010PropOp28
 70
     1
102
RTVSPost2010Prop29
280
     1
102
RTVSPost2010PropOp29
 70
     1
102
RTVSPost2010Prop30
280
     1
102
RTVSPost2010PropOp30
 70
     1
102
RTVSPost2010Prop31
280
     0
102
RTVSPost2010PropOp31
 70
     1
102
RTVSPost2010Prop32
280
     0
102
RTVSPost2010PropOp32
 70
     1
102
RTVSPost2010Prop33
280
     0
102
RTVSPost2010PropOp33
 70
     1
102
RTVSPost2010Prop34
280
     0
102
RTVSPost2010PropOp34
 70
     1
102
RTVSPost2010Prop35
280
     0
102
RTVSPost2010PropOp35
 70
     1
102
RTVSPost2010Prop36
280
     0
102
RTVSPost2010PropOp36
 70
     1
102
RTVSPost2010Prop37
 90
       50
102
RTVSPost2010PropOp37
 70
     1
102
RTVSPost2010Prop38
140
0.0
102
RTVSPost2010PropOp38
 70
     1
102
RTVSPost2010Prop39
140
1.0
102
RTVSPost2010PropOp39
 70
     1
102
RTVSPost2010Prop40
 90
        0
102
RTVSPost2010PropOp40
 70
     1
102
RTVSPost2010Prop41ColorIndex
 90
       18
102
RTVSPost2010Prop41ColorRGB
 90
        0
102
RTVSPost2010PropOp41
 70
     1
102
RTVSPost2010Prop42
 90
       50
102
RTVSPost2010PropOp42
 70
     1
102
RTVSPost2010Prop43
 90
        3
102
RTVSPost2010PropOp43
 70
     1
102
RTVSPost2010Prop44ColorIndex
 90
        5
102
RTVSPost2010Prop44ColorRGB
 90
      255
102
RTVSPost2010PropOp44
 70
     1
102
RTVSPost2010Prop45
280
     0
102
RTVSPost2010PropOp45
 70
     1
102
RTVSPost2010Prop46
 90
       50
102
RTVSPost2010PropOp46
 70
     1
102
RTVSPost2010Prop47
 90
       50
102
RTVSPost2010PropOp47
 70
     1
102
RTVSPost2010Prop48
 90
       50
102
RTVSPost2010PropOp48
 70
     1
102
RTVSPost2010Prop49
280
     0
102
RTVSPost2010PropOp49
 70
     1
102
RTVSPost2010Prop50
 90
       50
102
RTVSPost2010PropOp50
 70
     1
102
RTVSPost2010Prop51ColorIndex
 90
      256
102
RTVSPost2010Prop51ColorRGB
 90
-16777216
102
RTVSPost2010PropOp51
 70
     0
102
RTVSPost2010Prop52
140
1.0
102
RTVSPost2010PropOp52
 70
     0
102
RTVSPost2010Prop53
 90
        2
102
RTVSPost2010PropOp53
 70
     1
102
RTVSPost2010Prop54
  1
strokes_ogs.tif
102
RTVSPost2010PropOp54
 70
     1
102
RTVSPost2010Prop55
280
     0
102
RTVSPost2010PropOp55
 70
     1
102
RTVSPost2010Prop56
140
1.0
102
RTVSPost2010PropOp56
 70
     1
102
RTVSPost2010Prop57
140
1.0
102
RTVSPost2010PropOp57
 70
     1
  0
XRECORD
  5
283F
102
{ACAD_REACTORS
330
283E
102
}
330
283E
100
AcDbXrecord
280
     1
102
RTVSPost2010Prop28
280
     0
102
RTVSPost2010PropOp28
 70
     1
102
RTVSPost2010Prop29
280
     1
102
RTVSPost2010PropOp29
 70
     1
102
RTVSPost2010Prop30
280
     1
102
RTVSPost2010PropOp30
 70
     1
102
RTVSPost2010Prop31
280
     0
102
RTVSPost2010PropOp31
 70
     1
102
RTVSPost2010Prop32
280
     0
102
RTVSPost2010PropOp32
 70
     1
102
RTVSPost2010Prop33
280
     0
102
RTVSPost2010PropOp33
 70
     1
102
RTVSPost2010Prop34
280
     0
102
RTVSPost2010PropOp34
 70
     1
102
RTVSPost2010Prop35
280
     0
102
RTVSPost2010PropOp35
 70
     1
102
RTVSPost2010Prop36
280
     0
102
RTVSPost2010PropOp36
 70
     1
102
RTVSPost2010Prop37
 90
       50
102
RTVSPost2010PropOp37
 70
     1
102
RTVSPost2010Prop38
140
0.0
102
RTVSPost2010PropOp38
 70
     1
102
RTVSPost2010Prop39
140
1.0
102
RTVSPost2010PropOp39
 70
     1
102
RTVSPost2010Prop40
 90
        0
102
RTVSPost2010PropOp40
 70
     1
102
RTVSPost2010Prop41ColorIndex
 90
       18
102
RTVSPost2010Prop41ColorRGB
 90
        0
102
RTVSPost2010PropOp41
 70
     1
102
RTVSPost2010Prop42
 90
       50
102
RTVSPost2010PropOp42
 70
     1
102
RTVSPost2010Prop43
 90
        3
102
RTVSPost2010PropOp43
 70
     1
102
RTVSPost2010Prop44ColorIndex
 90
        5
102
RTVSPost2010Prop44ColorRGB
 90
      255
102
RTVSPost2010PropOp44
 70
     1
102
RTVSPost2010Prop45
280
     0
102
RTVSPost2010PropOp45
 70
     1
102
RTVSPost2010Prop46
 90
       50
102
RTVSPost2010PropOp46
 70
     1
102
RTVSPost2010Prop47
 90
       50
102
RTVSPost2010PropOp47
 70
     1
102
RTVSPost2010Prop48
 90
       50
102
RTVSPost2010PropOp48
 70
     1
102
RTVSPost2010Prop49
280
     0
102
RTVSPost2010PropOp49
 70
     1
102
RTVSPost2010Prop50
 90
       50
102
RTVSPost2010PropOp50
 70
     1
102
RTVSPost2010Prop51ColorIndex
 90
      256
102
RTVSPost2010Prop51ColorRGB
 90
-16777216
102
RTVSPost2010PropOp51
 70
     0
102
RTVSPost2010Prop52
140
1.0
102
RTVSPost2010PropOp52
 70
     0
102
RTVSPost2010Prop53
 90
        2
102
RTVSPost2010PropOp53
 70
     1
102
RTVSPost2010Prop54
  1
strokes_ogs.tif
102
RTVSPost2010PropOp54
 70
     1
102
RTVSPost2010Prop55
280
     0
102
RTVSPost2010PropOp55
 70
     1
102
RTVSPost2010Prop56
140
1.0
102
RTVSPost2010PropOp56
 70
     1
102
RTVSPost2010Prop57
140
1.0
102
RTVSPost2010PropOp57
 70
     1
  0
XRECORD
  5
2841
102
{ACAD_REACTORS
330
2840
102
}
330
2840
100
AcDbXrecord
280
     1
102
RTVSPost2010Prop28
280
     0
102
RTVSPost2010PropOp28
 70
     1
102
RTVSPost2010Prop29
280
     1
102
RTVSPost2010PropOp29
 70
     1
102
RTVSPost2010Prop30
280
     1
102
RTVSPost2010PropOp30
 70
     1
102
RTVSPost2010Prop31
280
     0
102
RTVSPost2010PropOp31
 70
     1
102
RTVSPost2010Prop32
280
     0
102
RTVSPost2010PropOp32
 70
     1
102
RTVSPost2010Prop33
280
     0
102
RTVSPost2010PropOp33
 70
     1
102
RTVSPost2010Prop34
280
     0
102
RTVSPost2010PropOp34
 70
     1
102
RTVSPost2010Prop35
280
     0
102
RTVSPost2010PropOp35
 70
     1
102
RTVSPost2010Prop36
280
     0
102
RTVSPost2010PropOp36
 70
     1
102
RTVSPost2010Prop37
 90
       50
102
RTVSPost2010PropOp37
 70
     1
102
RTVSPost2010Prop38
140
0.0
102
RTVSPost2010PropOp38
 70
     1
102
RTVSPost2010Prop39
140
1.0
102
RTVSPost2010PropOp39
 70
     1
102
RTVSPost2010Prop40
 90
        0
102
RTVSPost2010PropOp40
 70
     1
102
RTVSPost2010Prop41ColorIndex
 90
       18
102
RTVSPost2010Prop41ColorRGB
 90
        0
102
RTVSPost2010PropOp41
 70
     1
102
RTVSPost2010Prop42
 90
       50
102
RTVSPost2010PropOp42
 70
     1
102
RTVSPost2010Prop43
 90
        3
102
RTVSPost2010PropOp43
 70
     1
102
RTVSPost2010Prop44ColorIndex
 90
        5
102
RTVSPost2010Prop44ColorRGB
 90
      255
102
RTVSPost2010PropOp44
 70
     1
102
RTVSPost2010Prop45
280
     0
102
RTVSPost2010PropOp45
 70
     1
102
RTVSPost2010Prop46
 90
       50
102
RTVSPost2010PropOp46
 70
     1
102
RTVSPost2010Prop47
 90
       50
102
RTVSPost2010PropOp47
 70
     1
102
RTVSPost2010Prop48
 90
       50
102
RTVSPost2010PropOp48
 70
     1
102
RTVSPost2010Prop49
280
     0
102
RTVSPost2010PropOp49
 70
     1
102
RTVSPost2010Prop50
 90
       50
102
RTVSPost2010PropOp50
 70
     1
102
RTVSPost2010Prop51ColorIndex
 90
      256
102
RTVSPost2010Prop51ColorRGB
 90
-16777216
102
RTVSPost2010PropOp51
 70
     0
102
RTVSPost2010Prop52
140
1.0
102
RTVSPost2010PropOp52
 70
     0
102
RTVSPost2010Prop53
 90
        2
102
RTVSPost2010PropOp53
 70
     1
102
RTVSPost2010Prop54
  1
strokes_ogs.tif
102
RTVSPost2010PropOp54
 70
     1
102
RTVSPost2010Prop55
280
     0
102
RTVSPost2010PropOp55
 70
     1
102
RTVSPost2010Prop56
140
1.0
102
RTVSPost2010PropOp56
 70
     1
102
RTVSPost2010Prop57
140
1.0
102
RTVSPost2010PropOp57
 70
     1
  0
XRECORD
  5
2843
102
{ACAD_REACTORS
330
2842
102
}
330
2842
100
AcDbXrecord
280
     1
102
RTVSPost2010Prop28
280
     0
102
RTVSPost2010PropOp28
 70
     1
102
RTVSPost2010Prop29
280
     1
102
RTVSPost2010PropOp29
 70
     1
102
RTVSPost2010Prop30
280
     1
102
RTVSPost2010PropOp30
 70
     1
102
RTVSPost2010Prop31
280
     0
102
RTVSPost2010PropOp31
 70
     1
102
RTVSPost2010Prop32
280
     0
102
RTVSPost2010PropOp32
 70
     1
102
RTVSPost2010Prop33
280
     0
102
RTVSPost2010PropOp33
 70
     1
102
RTVSPost2010Prop34
280
     0
102
RTVSPost2010PropOp34
 70
     1
102
RTVSPost2010Prop35
280
     0
102
RTVSPost2010PropOp35
 70
     1
102
RTVSPost2010Prop36
280
     0
102
RTVSPost2010PropOp36
 70
     1
102
RTVSPost2010Prop37
 90
       50
102
RTVSPost2010PropOp37
 70
     1
102
RTVSPost2010Prop38
140
0.0
102
RTVSPost2010PropOp38
 70
     1
102
RTVSPost2010Prop39
140
1.0
102
RTVSPost2010PropOp39
 70
     1
102
RTVSPost2010Prop40
 90
        0
102
RTVSPost2010PropOp40
 70
     1
102
RTVSPost2010Prop41ColorIndex
 90
       18
102
RTVSPost2010Prop41ColorRGB
 90
        0
102
RTVSPost2010PropOp41
 70
     1
102
RTVSPost2010Prop42
 90
       50
102
RTVSPost2010PropOp42
 70
     1
102
RTVSPost2010Prop43
 90
        3
102
RTVSPost2010PropOp43
 70
     1
102
RTVSPost2010Prop44ColorIndex
 90
        5
102
RTVSPost2010Prop44ColorRGB
 90
      255
102
RTVSPost2010PropOp44
 70
     1
102
RTVSPost2010Prop45
280
     0
102
RTVSPost2010PropOp45
 70
     1
102
RTVSPost2010Prop46
 90
       50
102
RTVSPost2010PropOp46
 70
     1
102
RTVSPost2010Prop47
 90
       50
102
RTVSPost2010PropOp47
 70
     1
102
RTVSPost2010Prop48
 90
       50
102
RTVSPost2010PropOp48
 70
     1
102
RTVSPost2010Prop49
280
     0
102
RTVSPost2010PropOp49
 70
     1
102
RTVSPost2010Prop50
 90
       50
102
RTVSPost2010PropOp50
 70
     1
102
RTVSPost2010Prop51ColorIndex
 90
      256
102
RTVSPost2010Prop51ColorRGB
 90
-16777216
102
RTVSPost2010PropOp51
 70
     0
102
RTVSPost2010Prop52
140
1.0
102
RTVSPost2010PropOp52
 70
     0
102
RTVSPost2010Prop53
 90
        2
102
RTVSPost2010PropOp53
 70
     1
102
RTVSPost2010Prop54
  1
strokes_ogs.tif
102
RTVSPost2010PropOp54
 70
     1
102
RTVSPost2010Prop55
280
     0
102
RTVSPost2010PropOp55
 70
     1
102
RTVSPost2010Prop56
140
1.0
102
RTVSPost2010PropOp56
 70
     1
102
RTVSPost2010Prop57
140
1.0
102
RTVSPost2010PropOp57
 70
     1
  0
XRECORD
  5
2845
102
{ACAD_REACTORS
330
2844
102
}
330
2844
100
AcDbXrecord
280
     1
102
RTVSPost2010Prop28
280
     0
102
RTVSPost2010PropOp28
 70
     0
102
RTVSPost2010Prop29
280
     1
102
RTVSPost2010PropOp29
 70
     0
102
RTVSPost2010Prop30
280
     1
102
RTVSPost2010PropOp30
 70
     0
102
RTVSPost2010Prop31
280
     0
102
RTVSPost2010PropOp31
 70
     0
102
RTVSPost2010Prop32
280
     0
102
RTVSPost2010PropOp32
 70
     0
102
RTVSPost2010Prop33
280
     0
102
RTVSPost2010PropOp33
 70
     0
102
RTVSPost2010Prop34
280
     0
102
RTVSPost2010PropOp34
 70
     0
102
RTVSPost2010Prop35
280
     0
102
RTVSPost2010PropOp35
 70
     0
102
RTVSPost2010Prop36
280
     0
102
RTVSPost2010PropOp36
 70
     0
102
RTVSPost2010Prop37
 90
       50
102
RTVSPost2010PropOp37
 70
     0
102
RTVSPost2010Prop38
140
0.0
102
RTVSPost2010PropOp38
 70
     0
102
RTVSPost2010Prop39
140
1.0
102
RTVSPost2010PropOp39
 70
     0
102
RTVSPost2010Prop40
 90
        0
102
RTVSPost2010PropOp40
 70
     0
102
RTVSPost2010Prop41ColorIndex
 90
       18
102
RTVSPost2010Prop41ColorRGB
 90
        0
102
RTVSPost2010PropOp41
 70
     0
102
RTVSPost2010Prop42
 90
       50
102
RTVSPost2010PropOp42
 70
     0
102
RTVSPost2010Prop43
 90
        3
102
RTVSPost2010PropOp43
 70
     0
102
RTVSPost2010Prop44ColorIndex
 90
        5
102
RTVSPost2010Prop44ColorRGB
 90
      255
102
RTVSPost2010PropOp44
 70
     0
102
RTVSPost2010Prop45
280
     0
102
RTVSPost2010PropOp45
 70
     0
102
RTVSPost2010Prop46
 90
       50
102
RTVSPost2010PropOp46
 70
     0
102
RTVSPost2010Prop47
 90
       50
102
RTVSPost2010PropOp47
 70
     0
102
RTVSPost2010Prop48
 90
       50
102
RTVSPost2010PropOp48
 70
     0
102
RTVSPost2010Prop49
280
     0
102
RTVSPost2010PropOp49
 70
     0
102
RTVSPost2010Prop50
 90
       50
102
RTVSPost2010PropOp50
 70
     0
102
RTVSPost2010Prop51ColorIndex
 90
      256
102
RTVSPost2010Prop51ColorRGB
 90
-16777216
102
RTVSPost2010PropOp51
 70
     0
102
RTVSPost2010Prop52
140
1.0
102
RTVSPost2010PropOp52
 70
     0
102
RTVSPost2010Prop53
 90
        2
102
RTVSPost2010PropOp53
 70
     0
102
RTVSPost2010Prop54
  1
strokes_ogs.tif
102
RTVSPost2010PropOp54
 70
     0
102
RTVSPost2010Prop55
280
     0
102
RTVSPost2010PropOp55
 70
     0
102
RTVSPost2010Prop56
140
1.0
102
RTVSPost2010PropOp56
 70
     0
102
RTVSPost2010Prop57
140
1.0
102
RTVSPost2010PropOp57
 70
     0
  0
XRECORD
  5
2847
102
{ACAD_REACTORS
330
2846
102
}
330
2846
100
AcDbXrecord
280
     1
102
RTVSPost2010Prop28
280
     0
102
RTVSPost2010PropOp28
 70
     1
102
RTVSPost2010Prop29
280
     1
102
RTVSPost2010PropOp29
 70
     1
102
RTVSPost2010Prop30
280
     1
102
RTVSPost2010PropOp30
 70
     1
102
RTVSPost2010Prop31
280
     0
102
RTVSPost2010PropOp31
 70
     1
102
RTVSPost2010Prop32
280
     0
102
RTVSPost2010PropOp32
 70
     1
102
RTVSPost2010Prop33
280
     0
102
RTVSPost2010PropOp33
 70
     1
102
RTVSPost2010Prop34
280
     0
102
RTVSPost2010PropOp34
 70
     1
102
RTVSPost2010Prop35
280
     0
102
RTVSPost2010PropOp35
 70
     1
102
RTVSPost2010Prop36
280
     0
102
RTVSPost2010PropOp36
 70
     1
102
RTVSPost2010Prop37
 90
       50
102
RTVSPost2010PropOp37
 70
     1
102
RTVSPost2010Prop38
140
0.0
102
RTVSPost2010PropOp38
 70
     1
102
RTVSPost2010Prop39
140
1.0
102
RTVSPost2010PropOp39
 70
     1
102
RTVSPost2010Prop40
 90
        0
102
RTVSPost2010PropOp40
 70
     1
102
RTVSPost2010Prop41ColorIndex
 90
       18
102
RTVSPost2010Prop41ColorRGB
 90
        0
102
RTVSPost2010PropOp41
 70
     1
102
RTVSPost2010Prop42
 90
       50
102
RTVSPost2010PropOp42
 70
     1
102
RTVSPost2010Prop43
 90
        3
102
RTVSPost2010PropOp43
 70
     1
102
RTVSPost2010Prop44ColorIndex
 90
        5
102
RTVSPost2010Prop44ColorRGB
 90
      255
102
RTVSPost2010PropOp44
 70
     1
102
RTVSPost2010Prop45
280
     0
102
RTVSPost2010PropOp45
 70
     1
102
RTVSPost2010Prop46
 90
       50
102
RTVSPost2010PropOp46
 70
     1
102
RTVSPost2010Prop47
 90
       50
102
RTVSPost2010PropOp47
 70
     1
102
RTVSPost2010Prop48
 90
       50
102
RTVSPost2010PropOp48
 70
     1
102
RTVSPost2010Prop49
280
     0
102
RTVSPost2010PropOp49
 70
     1
102
RTVSPost2010Prop50
 90
       50
102
RTVSPost2010PropOp50
 70
     1
102
RTVSPost2010Prop51ColorIndex
 90
      256
102
RTVSPost2010Prop51ColorRGB
 90
-16777216
102
RTVSPost2010PropOp51
 70
     0
102
RTVSPost2010Prop52
140
1.0
102
RTVSPost2010PropOp52
 70
     0
102
RTVSPost2010Prop53
 90
        2
102
RTVSPost2010PropOp53
 70
     1
102
RTVSPost2010Prop54
  1
strokes_ogs.tif
102
RTVSPost2010PropOp54
 70
     1
102
RTVSPost2010Prop55
280
     0
102
RTVSPost2010PropOp55
 70
     1
102
RTVSPost2010Prop56
140
1.0
102
RTVSPost2010PropOp56
 70
     1
102
RTVSPost2010Prop57
140
1.0
102
RTVSPost2010PropOp57
 70
     1
  0
XRECORD
  5
2849
102
{ACAD_REACTORS
330
2848
102
}
330
2848
100
AcDbXrecord
280
     1
102
RTVSPost2010Prop28
280
     0
102
RTVSPost2010PropOp28
 70
     0
102
RTVSPost2010Prop29
280
     1
102
RTVSPost2010PropOp29
 70
     0
102
RTVSPost2010Prop30
280
     1
102
RTVSPost2010PropOp30
 70
     0
102
RTVSPost2010Prop31
280
     0
102
RTVSPost2010PropOp31
 70
     0
102
RTVSPost2010Prop32
280
     0
102
RTVSPost2010PropOp32
 70
     0
102
RTVSPost2010Prop33
280
     0
102
RTVSPost2010PropOp33
 70
     0
102
RTVSPost2010Prop34
280
     0
102
RTVSPost2010PropOp34
 70
     0
102
RTVSPost2010Prop35
280
     0
102
RTVSPost2010PropOp35
 70
     0
102
RTVSPost2010Prop36
280
     0
102
RTVSPost2010PropOp36
 70
     0
102
RTVSPost2010Prop37
 90
       50
102
RTVSPost2010PropOp37
 70
     0
102
RTVSPost2010Prop38
140
0.0
102
RTVSPost2010PropOp38
 70
     0
102
RTVSPost2010Prop39
140
1.0
102
RTVSPost2010PropOp39
 70
     0
102
RTVSPost2010Prop40
 90
        0
102
RTVSPost2010PropOp40
 70
     0
102
RTVSPost2010Prop41ColorIndex
 90
       18
102
RTVSPost2010Prop41ColorRGB
 90
        0
102
RTVSPost2010PropOp41
 70
     0
102
RTVSPost2010Prop42
 90
       50
102
RTVSPost2010PropOp42
 70
     0
102
RTVSPost2010Prop43
 90
        3
102
RTVSPost2010PropOp43
 70
     0
102
RTVSPost2010Prop44ColorIndex
 90
        5
102
RTVSPost2010Prop44ColorRGB
 90
      255
102
RTVSPost2010PropOp44
 70
     0
102
RTVSPost2010Prop45
280
     0
102
RTVSPost2010PropOp45
 70
     0
102
RTVSPost2010Prop46
 90
       50
102
RTVSPost2010PropOp46
 70
     0
102
RTVSPost2010Prop47
 90
       50
102
RTVSPost2010PropOp47
 70
     0
102
RTVSPost2010Prop48
 90
       50
102
RTVSPost2010PropOp48
 70
     0
102
RTVSPost2010Prop49
280
     0
102
RTVSPost2010PropOp49
 70
     0
102
RTVSPost2010Prop50
 90
       50
102
RTVSPost2010PropOp50
 70
     0
102
RTVSPost2010Prop51ColorIndex
 90
      256
102
RTVSPost2010Prop51ColorRGB
 90
-16777216
102
RTVSPost2010PropOp51
 70
     0
102
RTVSPost2010Prop52
140
1.0
102
RTVSPost2010PropOp52
 70
     0
102
RTVSPost2010Prop53
 90
        2
102
RTVSPost2010PropOp53
 70
     0
102
RTVSPost2010Prop54
  1
strokes_ogs.tif
102
RTVSPost2010PropOp54
 70
     0
102
RTVSPost2010Prop55
280
     0
102
RTVSPost2010PropOp55
 70
     0
102
RTVSPost2010Prop56
140
1.0
102
RTVSPost2010PropOp56
 70
     0
102
RTVSPost2010Prop57
140
1.0
102
RTVSPost2010PropOp57
 70
     0
  0
XRECORD
  5
284B
102
{ACAD_REACTORS
330
284A
102
}
330
284A
100
AcDbXrecord
280
     1
102
RTVSPost2010Prop28
280
     0
102
RTVSPost2010PropOp28
 70
     1
102
RTVSPost2010Prop29
280
     1
102
RTVSPost2010PropOp29
 70
     1
102
RTVSPost2010Prop30
280
     1
102
RTVSPost2010PropOp30
 70
     1
102
RTVSPost2010Prop31
280
     0
102
RTVSPost2010PropOp31
 70
     1
102
RTVSPost2010Prop32
280
     0
102
RTVSPost2010PropOp32
 70
     1
102
RTVSPost2010Prop33
280
     0
102
RTVSPost2010PropOp33
 70
     1
102
RTVSPost2010Prop34
280
     0
102
RTVSPost2010PropOp34
 70
     1
102
RTVSPost2010Prop35
280
     0
102
RTVSPost2010PropOp35
 70
     1
102
RTVSPost2010Prop36
280
     0
102
RTVSPost2010PropOp36
 70
     1
102
RTVSPost2010Prop37
 90
       50
102
RTVSPost2010PropOp37
 70
     1
102
RTVSPost2010Prop38
140
0.0
102
RTVSPost2010PropOp38
 70
     1
102
RTVSPost2010Prop39
140
1.0
102
RTVSPost2010PropOp39
 70
     1
102
RTVSPost2010Prop40
 90
        0
102
RTVSPost2010PropOp40
 70
     1
102
RTVSPost2010Prop41ColorIndex
 90
       18
102
RTVSPost2010Prop41ColorRGB
 90
        0
102
RTVSPost2010PropOp41
 70
     1
102
RTVSPost2010Prop42
 90
       50
102
RTVSPost2010PropOp42
 70
     1
102
RTVSPost2010Prop43
 90
        3
102
RTVSPost2010PropOp43
 70
     1
102
RTVSPost2010Prop44ColorIndex
 90
        5
102
RTVSPost2010Prop44ColorRGB
 90
      255
102
RTVSPost2010PropOp44
 70
     1
102
RTVSPost2010Prop45
280
     0
102
RTVSPost2010PropOp45
 70
     1
102
RTVSPost2010Prop46
 90
       50
102
RTVSPost2010PropOp46
 70
     1
102
RTVSPost2010Prop47
 90
       50
102
RTVSPost2010PropOp47
 70
     1
102
RTVSPost2010Prop48
 90
       50
102
RTVSPost2010PropOp48
 70
     1
102
RTVSPost2010Prop49
280
     0
102
RTVSPost2010PropOp49
 70
     1
102
RTVSPost2010Prop50
 90
       50
102
RTVSPost2010PropOp50
 70
     1
102
RTVSPost2010Prop51ColorIndex
 90
      256
102
RTVSPost2010Prop51ColorRGB
 90
-16777216
102
RTVSPost2010PropOp51
 70
     0
102
RTVSPost2010Prop52
140
1.0
102
RTVSPost2010PropOp52
 70
     0
102
RTVSPost2010Prop53
 90
        2
102
RTVSPost2010PropOp53
 70
     1
102
RTVSPost2010Prop54
  1
strokes_ogs.tif
102
RTVSPost2010PropOp54
 70
     1
102
RTVSPost2010Prop55
280
     0
102
RTVSPost2010PropOp55
 70
     1
102
RTVSPost2010Prop56
140
1.0
102
RTVSPost2010PropOp56
 70
     1
102
RTVSPost2010Prop57
140
1.0
102
RTVSPost2010PropOp57
 70
     1
  0
XRECORD
  5
284D
102
{ACAD_REACTORS
330
284C
102
}
330
284C
100
AcDbXrecord
280
     1
102
RTVSPost2010Prop28
280
     0
102
RTVSPost2010PropOp28
 70
     1
102
RTVSPost2010Prop29
280
     1
102
RTVSPost2010PropOp29
 70
     1
102
RTVSPost2010Prop30
280
     1
102
RTVSPost2010PropOp30
 70
     1
102
RTVSPost2010Prop31
280
     0
102
RTVSPost2010PropOp31
 70
     1
102
RTVSPost2010Prop32
280
     0
102
RTVSPost2010PropOp32
 70
     1
102
RTVSPost2010Prop33
280
     0
102
RTVSPost2010PropOp33
 70
     1
102
RTVSPost2010Prop34
280
     0
102
RTVSPost2010PropOp34
 70
     1
102
RTVSPost2010Prop35
280
     0
102
RTVSPost2010PropOp35
 70
     1
102
RTVSPost2010Prop36
280
     0
102
RTVSPost2010PropOp36
 70
     1
102
RTVSPost2010Prop37
 90
       50
102
RTVSPost2010PropOp37
 70
     1
102
RTVSPost2010Prop38
140
0.0
102
RTVSPost2010PropOp38
 70
     1
102
RTVSPost2010Prop39
140
1.0
102
RTVSPost2010PropOp39
 70
     1
102
RTVSPost2010Prop40
 90
        0
102
RTVSPost2010PropOp40
 70
     1
102
RTVSPost2010Prop41ColorIndex
 90
       18
102
RTVSPost2010Prop41ColorRGB
 90
        0
102
RTVSPost2010PropOp41
 70
     1
102
RTVSPost2010Prop42
 90
       50
102
RTVSPost2010PropOp42
 70
     1
102
RTVSPost2010Prop43
 90
        3
102
RTVSPost2010PropOp43
 70
     1
102
RTVSPost2010Prop44ColorIndex
 90
        5
102
RTVSPost2010Prop44ColorRGB
 90
      255
102
RTVSPost2010PropOp44
 70
     1
102
RTVSPost2010Prop45
280
     0
102
RTVSPost2010PropOp45
 70
     1
102
RTVSPost2010Prop46
 90
       50
102
RTVSPost2010PropOp46
 70
     1
102
RTVSPost2010Prop47
 90
       50
102
RTVSPost2010PropOp47
 70
     1
102
RTVSPost2010Prop48
 90
       50
102
RTVSPost2010PropOp48
 70
     1
102
RTVSPost2010Prop49
280
     0
102
RTVSPost2010PropOp49
 70
     1
102
RTVSPost2010Prop50
 90
       50
102
RTVSPost2010PropOp50
 70
     1
102
RTVSPost2010Prop51ColorIndex
 90
      256
102
RTVSPost2010Prop51ColorRGB
 90
-16777216
102
RTVSPost2010PropOp51
 70
     0
102
RTVSPost2010Prop52
140
1.0
102
RTVSPost2010PropOp52
 70
     0
102
RTVSPost2010Prop53
 90
        2
102
RTVSPost2010PropOp53
 70
     1
102
RTVSPost2010Prop54
  1
strokes_ogs.tif
102
RTVSPost2010PropOp54
 70
     1
102
RTVSPost2010Prop55
280
     0
102
RTVSPost2010PropOp55
 70
     1
102
RTVSPost2010Prop56
140
1.0
102
RTVSPost2010PropOp56
 70
     1
102
RTVSPost2010Prop57
140
1.0
102
RTVSPost2010PropOp57
 70
     1
  0
XRECORD
  5
284F
102
{ACAD_REACTORS
330
284E
102
}
330
284E
100
AcDbXrecord
280
     1
102
RTVSPost2010Prop28
280
     0
102
RTVSPost2010PropOp28
 70
     1
102
RTVSPost2010Prop29
280
     1
102
RTVSPost2010PropOp29
 70
     1
102
RTVSPost2010Prop30
280
     1
102
RTVSPost2010PropOp30
 70
     1
102
RTVSPost2010Prop31
280
     0
102
RTVSPost2010PropOp31
 70
     1
102
RTVSPost2010Prop32
280
     0
102
RTVSPost2010PropOp32
 70
     1
102
RTVSPost2010Prop33
280
     0
102
RTVSPost2010PropOp33
 70
     1
102
RTVSPost2010Prop34
280
     0
102
RTVSPost2010PropOp34
 70
     1
102
RTVSPost2010Prop35
280
     0
102
RTVSPost2010PropOp35
 70
     1
102
RTVSPost2010Prop36
280
     0
102
RTVSPost2010PropOp36
 70
     1
102
RTVSPost2010Prop37
 90
       50
102
RTVSPost2010PropOp37
 70
     1
102
RTVSPost2010Prop38
140
0.0
102
RTVSPost2010PropOp38
 70
     1
102
RTVSPost2010Prop39
140
1.0
102
RTVSPost2010PropOp39
 70
     1
102
RTVSPost2010Prop40
 90
        0
102
RTVSPost2010PropOp40
 70
     1
102
RTVSPost2010Prop41ColorIndex
 90
       18
102
RTVSPost2010Prop41ColorRGB
 90
        0
102
RTVSPost2010PropOp41
 70
     1
102
RTVSPost2010Prop42
 90
       50
102
RTVSPost2010PropOp42
 70
     1
102
RTVSPost2010Prop43
 90
        3
102
RTVSPost2010PropOp43
 70
     1
102
RTVSPost2010Prop44ColorIndex
 90
        5
102
RTVSPost2010Prop44ColorRGB
 90
      255
102
RTVSPost2010PropOp44
 70
     1
102
RTVSPost2010Prop45
280
     0
102
RTVSPost2010PropOp45
 70
     1
102
RTVSPost2010Prop46
 90
       50
102
RTVSPost2010PropOp46
 70
     1
102
RTVSPost2010Prop47
 90
       50
102
RTVSPost2010PropOp47
 70
     1
102
RTVSPost2010Prop48
 90
       50
102
RTVSPost2010PropOp48
 70
     1
102
RTVSPost2010Prop49
280
     0
102
RTVSPost2010PropOp49
 70
     1
102
RTVSPost2010Prop50
 90
       50
102
RTVSPost2010PropOp50
 70
     1
102
RTVSPost2010Prop51ColorIndex
 90
      256
102
RTVSPost2010Prop51ColorRGB
 90
-16777216
102
RTVSPost2010PropOp51
 70
     0
102
RTVSPost2010Prop52
140
1.0
102
RTVSPost2010PropOp52
 70
     0
102
RTVSPost2010Prop53
 90
        2
102
RTVSPost2010PropOp53
 70
     1
102
RTVSPost2010Prop54
  1
strokes_ogs.tif
102
RTVSPost2010PropOp54
 70
     1
102
RTVSPost2010Prop55
280
     0
102
RTVSPost2010PropOp55
 70
     1
102
RTVSPost2010Prop56
140
1.0
102
RTVSPost2010PropOp56
 70
     1
102
RTVSPost2010Prop57
140
1.0
102
RTVSPost2010PropOp57
 70
     1
  0
XRECORD
  5
2851
102
{ACAD_REACTORS
330
2850
102
}
330
2850
100
AcDbXrecord
280
     1
102
RTVSPost2010Prop28
280
     0
102
RTVSPost2010PropOp28
 70
     1
102
RTVSPost2010Prop29
280
     1
102
RTVSPost2010PropOp29
 70
     1
102
RTVSPost2010Prop30
280
     1
102
RTVSPost2010PropOp30
 70
     1
102
RTVSPost2010Prop31
280
     0
102
RTVSPost2010PropOp31
 70
     1
102
RTVSPost2010Prop32
280
     0
102
RTVSPost2010PropOp32
 70
     1
102
RTVSPost2010Prop33
280
     0
102
RTVSPost2010PropOp33
 70
     1
102
RTVSPost2010Prop34
280
     0
102
RTVSPost2010PropOp34
 70
     1
102
RTVSPost2010Prop35
280
     0
102
RTVSPost2010PropOp35
 70
     1
102
RTVSPost2010Prop36
280
     0
102
RTVSPost2010PropOp36
 70
     1
102
RTVSPost2010Prop37
 90
       50
102
RTVSPost2010PropOp37
 70
     1
102
RTVSPost2010Prop38
140
0.0
102
RTVSPost2010PropOp38
 70
     1
102
RTVSPost2010Prop39
140
1.0
102
RTVSPost2010PropOp39
 70
     1
102
RTVSPost2010Prop40
 90
        0
102
RTVSPost2010PropOp40
 70
     1
102
RTVSPost2010Prop41ColorIndex
 90
       18
102
RTVSPost2010Prop41ColorRGB
 90
        0
102
RTVSPost2010PropOp41
 70
     1
102
RTVSPost2010Prop42
 90
       50
102
RTVSPost2010PropOp42
 70
     1
102
RTVSPost2010Prop43
 90
        3
102
RTVSPost2010PropOp43
 70
     1
102
RTVSPost2010Prop44ColorIndex
 90
        5
102
RTVSPost2010Prop44ColorRGB
 90
      255
102
RTVSPost2010PropOp44
 70
     1
102
RTVSPost2010Prop45
280
     0
102
RTVSPost2010PropOp45
 70
     1
102
RTVSPost2010Prop46
 90
       50
102
RTVSPost2010PropOp46
 70
     1
102
RTVSPost2010Prop47
 90
       50
102
RTVSPost2010PropOp47
 70
     1
102
RTVSPost2010Prop48
 90
       50
102
RTVSPost2010PropOp48
 70
     1
102
RTVSPost2010Prop49
280
     0
102
RTVSPost2010PropOp49
 70
     1
102
RTVSPost2010Prop50
 90
       50
102
RTVSPost2010PropOp50
 70
     1
102
RTVSPost2010Prop51ColorIndex
 90
      256
102
RTVSPost2010Prop51ColorRGB
 90
-16777216
102
RTVSPost2010PropOp51
 70
     0
102
RTVSPost2010Prop52
140
1.0
102
RTVSPost2010PropOp52
 70
     0
102
RTVSPost2010Prop53
 90
        2
102
RTVSPost2010PropOp53
 70
     1
102
RTVSPost2010Prop54
  1
strokes_ogs.tif
102
RTVSPost2010PropOp54
 70
     1
102
RTVSPost2010Prop55
280
     0
102
RTVSPost2010PropOp55
 70
     1
102
RTVSPost2010Prop56
140
1.0
102
RTVSPost2010PropOp56
 70
     1
102
RTVSPost2010Prop57
140
1.0
102
RTVSPost2010PropOp57
 70
     1
  0
XRECORD
  5
2853
102
{ACAD_REACTORS
330
2852
102
}
330
2852
100
AcDbXrecord
280
     1
102
RTVSPost2010Prop28
280
     0
102
RTVSPost2010PropOp28
 70
     1
102
RTVSPost2010Prop29
280
     1
102
RTVSPost2010PropOp29
 70
     1
102
RTVSPost2010Prop30
280
     1
102
RTVSPost2010PropOp30
 70
     1
102
RTVSPost2010Prop31
280
     0
102
RTVSPost2010PropOp31
 70
     1
102
RTVSPost2010Prop32
280
     0
102
RTVSPost2010PropOp32
 70
     1
102
RTVSPost2010Prop33
280
     0
102
RTVSPost2010PropOp33
 70
     1
102
RTVSPost2010Prop34
280
     0
102
RTVSPost2010PropOp34
 70
     1
102
RTVSPost2010Prop35
280
     0
102
RTVSPost2010PropOp35
 70
     1
102
RTVSPost2010Prop36
280
     0
102
RTVSPost2010PropOp36
 70
     1
102
RTVSPost2010Prop37
 90
       50
102
RTVSPost2010PropOp37
 70
     1
102
RTVSPost2010Prop38
140
0.0
102
RTVSPost2010PropOp38
 70
     1
102
RTVSPost2010Prop39
140
1.0
102
RTVSPost2010PropOp39
 70
     1
102
RTVSPost2010Prop40
 90
        0
102
RTVSPost2010PropOp40
 70
     1
102
RTVSPost2010Prop41ColorIndex
 90
       18
102
RTVSPost2010Prop41ColorRGB
 90
        0
102
RTVSPost2010PropOp41
 70
     1
102
RTVSPost2010Prop42
 90
       50
102
RTVSPost2010PropOp42
 70
     1
102
RTVSPost2010Prop43
 90
        3
102
RTVSPost2010PropOp43
 70
     1
102
RTVSPost2010Prop44ColorIndex
 90
        5
102
RTVSPost2010Prop44ColorRGB
 90
      255
102
RTVSPost2010PropOp44
 70
     1
102
RTVSPost2010Prop45
280
     0
102
RTVSPost2010PropOp45
 70
     1
102
RTVSPost2010Prop46
 90
       50
102
RTVSPost2010PropOp46
 70
     1
102
RTVSPost2010Prop47
 90
       50
102
RTVSPost2010PropOp47
 70
     1
102
RTVSPost2010Prop48
 90
       50
102
RTVSPost2010PropOp48
 70
     1
102
RTVSPost2010Prop49
280
     0
102
RTVSPost2010PropOp49
 70
     1
102
RTVSPost2010Prop50
 90
       50
102
RTVSPost2010PropOp50
 70
     1
102
RTVSPost2010Prop51ColorIndex
 90
      256
102
RTVSPost2010Prop51ColorRGB
 90
-16777216
102
RTVSPost2010PropOp51
 70
     0
102
RTVSPost2010Prop52
140
1.0
102
RTVSPost2010PropOp52
 70
     0
102
RTVSPost2010Prop53
 90
        2
102
RTVSPost2010PropOp53
 70
     1
102
RTVSPost2010Prop54
  1
strokes_ogs.tif
102
RTVSPost2010PropOp54
 70
     1
102
RTVSPost2010Prop55
280
     0
102
RTVSPost2010PropOp55
 70
     1
102
RTVSPost2010Prop56
140
1.0
102
RTVSPost2010PropOp56
 70
     1
102
RTVSPost2010Prop57
140
1.0
102
RTVSPost2010PropOp57
 70
     1
  0
XRECORD
  5
2855
102
{ACAD_REACTORS
330
2854
102
}
330
2854
100
AcDbXrecord
280
     1
102
RTVSPost2010Prop28
280
     0
102
RTVSPost2010PropOp28
 70
     1
102
RTVSPost2010Prop29
280
     1
102
RTVSPost2010PropOp29
 70
     1
102
RTVSPost2010Prop30
280
     1
102
RTVSPost2010PropOp30
 70
     1
102
RTVSPost2010Prop31
280
     0
102
RTVSPost2010PropOp31
 70
     1
102
RTVSPost2010Prop32
280
     0
102
RTVSPost2010PropOp32
 70
     1
102
RTVSPost2010Prop33
280
     0
102
RTVSPost2010PropOp33
 70
     1
102
RTVSPost2010Prop34
280
     0
102
RTVSPost2010PropOp34
 70
     1
102
RTVSPost2010Prop35
280
     0
102
RTVSPost2010PropOp35
 70
     1
102
RTVSPost2010Prop36
280
     0
102
RTVSPost2010PropOp36
 70
     1
102
RTVSPost2010Prop37
 90
       50
102
RTVSPost2010PropOp37
 70
     1
102
RTVSPost2010Prop38
140
0.0
102
RTVSPost2010PropOp38
 70
     1
102
RTVSPost2010Prop39
140
1.0
102
RTVSPost2010PropOp39
 70
     1
102
RTVSPost2010Prop40
 90
        0
102
RTVSPost2010PropOp40
 70
     1
102
RTVSPost2010Prop41ColorIndex
 90
       18
102
RTVSPost2010Prop41ColorRGB
 90
        0
102
RTVSPost2010PropOp41
 70
     1
102
RTVSPost2010Prop42
 90
       50
102
RTVSPost2010PropOp42
 70
     1
102
RTVSPost2010Prop43
 90
        3
102
RTVSPost2010PropOp43
 70
     1
102
RTVSPost2010Prop44ColorIndex
 90
        5
102
RTVSPost2010Prop44ColorRGB
 90
      255
102
RTVSPost2010PropOp44
 70
     1
102
RTVSPost2010Prop45
280
     0
102
RTVSPost2010PropOp45
 70
     1
102
RTVSPost2010Prop46
 90
       50
102
RTVSPost2010PropOp46
 70
     1
102
RTVSPost2010Prop47
 90
       50
102
RTVSPost2010PropOp47
 70
     1
102
RTVSPost2010Prop48
 90
       50
102
RTVSPost2010PropOp48
 70
     1
102
RTVSPost2010Prop49
280
     0
102
RTVSPost2010PropOp49
 70
     1
102
RTVSPost2010Prop50
 90
       50
102
RTVSPost2010PropOp50
 70
     1
102
RTVSPost2010Prop51ColorIndex
 90
      256
102
RTVSPost2010Prop51ColorRGB
 90
-16777216
102
RTVSPost2010PropOp51
 70
     0
102
RTVSPost2010Prop52
140
1.0
102
RTVSPost2010PropOp52
 70
     0
102
RTVSPost2010Prop53
 90
        2
102
RTVSPost2010PropOp53
 70
     1
102
RTVSPost2010Prop54
  1
strokes_ogs.tif
102
RTVSPost2010PropOp54
 70
     1
102
RTVSPost2010Prop55
280
     0
102
RTVSPost2010PropOp55
 70
     1
102
RTVSPost2010Prop56
140
1.0
102
RTVSPost2010PropOp56
 70
     1
102
RTVSPost2010Prop57
140
1.0
102
RTVSPost2010PropOp57
 70
     1
  0
XRECORD
  5
2857
102
{ACAD_REACTORS
330
2856
102
}
330
2856
100
AcDbXrecord
280
     1
102
RTVSPost2010Prop28
280
     0
102
RTVSPost2010PropOp28
 70
     1
102
RTVSPost2010Prop29
280
     1
102
RTVSPost2010PropOp29
 70
     1
102
RTVSPost2010Prop30
280
     1
102
RTVSPost2010PropOp30
 70
     1
102
RTVSPost2010Prop31
280
     0
102
RTVSPost2010PropOp31
 70
     1
102
RTVSPost2010Prop32
280
     0
102
RTVSPost2010PropOp32
 70
     1
102
RTVSPost2010Prop33
280
     0
102
RTVSPost2010PropOp33
 70
     1
102
RTVSPost2010Prop34
280
     0
102
RTVSPost2010PropOp34
 70
     1
102
RTVSPost2010Prop35
280
     0
102
RTVSPost2010PropOp35
 70
     1
102
RTVSPost2010Prop36
280
     0
102
RTVSPost2010PropOp36
 70
     1
102
RTVSPost2010Prop37
 90
       50
102
RTVSPost2010PropOp37
 70
     1
102
RTVSPost2010Prop38
140
0.0
102
RTVSPost2010PropOp38
 70
     1
102
RTVSPost2010Prop39
140
1.0
102
RTVSPost2010PropOp39
 70
     1
102
RTVSPost2010Prop40
 90
        0
102
RTVSPost2010PropOp40
 70
     1
102
RTVSPost2010Prop41ColorIndex
 90
       18
102
RTVSPost2010Prop41ColorRGB
 90
        0
102
RTVSPost2010PropOp41
 70
     1
102
RTVSPost2010Prop42
 90
       50
102
RTVSPost2010PropOp42
 70
     1
102
RTVSPost2010Prop43
 90
        3
102
RTVSPost2010PropOp43
 70
     1
102
RTVSPost2010Prop44ColorIndex
 90
        5
102
RTVSPost2010Prop44ColorRGB
 90
      255
102
RTVSPost2010PropOp44
 70
     1
102
RTVSPost2010Prop45
280
     0
102
RTVSPost2010PropOp45
 70
     1
102
RTVSPost2010Prop46
 90
       50
102
RTVSPost2010PropOp46
 70
     1
102
RTVSPost2010Prop47
 90
       50
102
RTVSPost2010PropOp47
 70
     1
102
RTVSPost2010Prop48
 90
       50
102
RTVSPost2010PropOp48
 70
     1
102
RTVSPost2010Prop49
280
     0
102
RTVSPost2010PropOp49
 70
     1
102
RTVSPost2010Prop50
 90
       50
102
RTVSPost2010PropOp50
 70
     1
102
RTVSPost2010Prop51ColorIndex
 90
      256
102
RTVSPost2010Prop51ColorRGB
 90
-16777216
102
RTVSPost2010PropOp51
 70
     0
102
RTVSPost2010Prop52
140
1.0
102
RTVSPost2010PropOp52
 70
     0
102
RTVSPost2010Prop53
 90
        2
102
RTVSPost2010PropOp53
 70
     1
102
RTVSPost2010Prop54
  1
strokes_ogs.tif
102
RTVSPost2010PropOp54
 70
     1
102
RTVSPost2010Prop55
280
     0
102
RTVSPost2010PropOp55
 70
     1
102
RTVSPost2010Prop56
140
1.0
102
RTVSPost2010PropOp56
 70
     1
102
RTVSPost2010Prop57
140
1.0
102
RTVSPost2010PropOp57
 70
     1
  0
XRECORD
  5
2859
102
{ACAD_REACTORS
330
2858
102
}
330
2858
100
AcDbXrecord
280
     1
102
RTVSPost2010Prop28
280
     0
102
RTVSPost2010PropOp28
 70
     1
102
RTVSPost2010Prop29
280
     1
102
RTVSPost2010PropOp29
 70
     1
102
RTVSPost2010Prop30
280
     1
102
RTVSPost2010PropOp30
 70
     1
102
RTVSPost2010Prop31
280
     0
102
RTVSPost2010PropOp31
 70
     1
102
RTVSPost2010Prop32
280
     0
102
RTVSPost2010PropOp32
 70
     1
102
RTVSPost2010Prop33
280
     0
102
RTVSPost2010PropOp33
 70
     1
102
RTVSPost2010Prop34
280
     0
102
RTVSPost2010PropOp34
 70
     1
102
RTVSPost2010Prop35
280
     0
102
RTVSPost2010PropOp35
 70
     1
102
RTVSPost2010Prop36
280
     0
102
RTVSPost2010PropOp36
 70
     1
102
RTVSPost2010Prop37
 90
       50
102
RTVSPost2010PropOp37
 70
     1
102
RTVSPost2010Prop38
140
0.0
102
RTVSPost2010PropOp38
 70
     1
102
RTVSPost2010Prop39
140
1.0
102
RTVSPost2010PropOp39
 70
     1
102
RTVSPost2010Prop40
 90
        0
102
RTVSPost2010PropOp40
 70
     1
102
RTVSPost2010Prop41ColorIndex
 90
       18
102
RTVSPost2010Prop41ColorRGB
 90
        0
102
RTVSPost2010PropOp41
 70
     1
102
RTVSPost2010Prop42
 90
       50
102
RTVSPost2010PropOp42
 70
     1
102
RTVSPost2010Prop43
 90
        3
102
RTVSPost2010PropOp43
 70
     1
102
RTVSPost2010Prop44ColorIndex
 90
        5
102
RTVSPost2010Prop44ColorRGB
 90
      255
102
RTVSPost2010PropOp44
 70
     1
102
RTVSPost2010Prop45
280
     0
102
RTVSPost2010PropOp45
 70
     1
102
RTVSPost2010Prop46
 90
       50
102
RTVSPost2010PropOp46
 70
     1
102
RTVSPost2010Prop47
 90
       50
102
RTVSPost2010PropOp47
 70
     1
102
RTVSPost2010Prop48
 90
       50
102
RTVSPost2010PropOp48
 70
     1
102
RTVSPost2010Prop49
280
     0
102
RTVSPost2010PropOp49
 70
     1
102
RTVSPost2010Prop50
 90
       50
102
RTVSPost2010PropOp50
 70
     1
102
RTVSPost2010Prop51ColorIndex
 90
      256
102
RTVSPost2010Prop51ColorRGB
 90
-16777216
102
RTVSPost2010PropOp51
 70
     0
102
RTVSPost2010Prop52
140
1.0
102
RTVSPost2010PropOp52
 70
     0
102
RTVSPost2010Prop53
 90
        2
102
RTVSPost2010PropOp53
 70
     1
102
RTVSPost2010Prop54
  1
strokes_ogs.tif
102
RTVSPost2010PropOp54
 70
     1
102
RTVSPost2010Prop55
280
     0
102
RTVSPost2010PropOp55
 70
     1
102
RTVSPost2010Prop56
140
1.0
102
RTVSPost2010PropOp56
 70
     1
102
RTVSPost2010Prop57
140
1.0
102
RTVSPost2010PropOp57
 70
     1
  0
ENDSEC
  0
EOF
